007: СПЕКТР / Spectre (Сэм Мендес / Sam Mendes) [2015, США, Великобритания, Боевик, Триллер, Приключения, HDRip] Dub (Line) + Sub Rus, Eng + Original Eng

Ответить на тему
Статистика раздачи
Размер:  2,25 GB   |    Зарегистрирован:  1 год 6 месяцев   |    Скачан:  8 раз

Полного источника не было: 2 дня 4 часа

 
     
 
 
Автор Сообщение

Crash08 ®

Пол: Мужской

Стаж: 5 лет 10 месяцев

Сообщений: 4789

Создавать темы 23-Янв-2016 15:56

[Цитировать]

-007: СПЕКТР / Spectre- -Страна: США, Великобритания
Жанр: Боевик, Триллер, Приключения
Год выпуска: 2015
Продолжительность: 02:28:06-Перевод: Профессиональный (дублированный) Line-Cубтитры: Русские (полные, форсированные), Английские
Оригинальная аудиодорожка: Английская-Режиссер: Сэм Мендес / Sam Mendes-В ролях: Дэниэл Крэйг, Кристоф Вальц, Леа Сейду, Рэйф Файнс, Моника Беллуччи, Бен Уишоу, Наоми Харрис, Дэйв Батиста, Эндрю Скотт, Рори Киннер, Еспер Кристенсен, Алессандро Кремона, Стефани Сигман, Теноч Уэрта, Адриана Пас, Доменико Фортунато, Йен Бонар, Там Уильямс, Ричард Бенхем, Пип Картер-Описание: Зашифрованное послание из неизвестного источника выводит Бонда на след зловещей глобальной организации под кодовым названием СПЕКТР, в то время как М пытается спасти секретную разведывательную службу от ликвидации.- - -Качество видео: HDRip
Формат видео: AVI-Видео: XviD build 73, 720x304 (2.35:1), 23.976 fps, ~1800 kbps avg, 0.33 bit/pixel
Аудио 1: 48 kHz, AC3 Dolby Digital, 2/0 (L,R) ch, ~192 kbps avg
Аудио 2: 48 kHz, AC3 Dolby Digital, 2/0 (L,R) ch, ~192 kbps avg (Eng) Отдельным файлом-
MediaInfo
Complete name : E:\РАЗДАЧИ\Spectre (2015) HDRip\Spectre (2015) HDRip.avi
Format : AVI
Format/Info : Audio Video Interleave
Format profile : OpenDML
File size : 2.05 GiB
Duration : 2h 28mn
Overall bit rate : 1 982 Kbps
Writing application : VirtualDubMod 1.5.10.3 | www.virtualdub-fr.org || (build 2550/release)
Writing library : VirtualDub build 32842/release
Video
ID : 0
Format : MPEG-4 Visual
Format profile : Advanced Simple@L5
Format settings, BVOP : 1
Format settings, QPel : No
Format settings, GMC : No warppoints
Format settings, Matrix : Custom
Codec ID : XVID
Codec ID/Hint : XviD
Duration : 2h 28mn
Bit rate : 1 777 Kbps
Width : 720 pixels
Height : 304 pixels
Display aspect ratio : 2.35:1
Frame rate : 23.976 fps
Color space : YUV
Chroma subsampling : 4:2:0
Bit depth : 8 bits
Scan type : Progressive
Compression mode : Lossy
Bits/(Pixel*Frame) : 0.339
Stream size : 1.84 GiB (90%)
Writing library : XviD 73
Audio
ID : 1
Format : AC-3
Format/Info : Audio Coding 3
Mode extension : CM (complete main)
Format settings, Endianness : Big
Codec ID : 2000
Duration : 2h 28mn
Bit rate mode : Constant
Bit rate : 192 Kbps
Channel(s) : 2 channels
Channel positions : Front: L R
Sampling rate : 48.0 KHz
Bit depth : 16 bits
Compression mode : Lossy
Stream size : 203 MiB (10%)
Alignment : Split accross interleaves
Interleave, duration : 42 ms (1.00 video frame)
Interleave, preload duration : 500 ms
Скриншот c названием фильма
Скриншоты
Релиз без рекламы!
[reactorr.org].t72253.torrent
Торрент: Зарегистрирован [ 23-01-2016 15:56 ] · 97DFFF7131421F78AC0E6D4BBDF33ABD2131AA

Скачать .torrent

Скачать

12 KB

Статус: проверено
Скачан: 8 раз
Размер: 2,25 GB
terms.php
[Профиль] [ЛС]
Показать сообщения:    
Ответить на тему

Текущее время: 19-Авг 04:49

Часовой пояс: UTC + 3



Вы не можете начинать темы
Вы не можете отвечать на сообщения
Вы не можете редактировать свои сообщения
Вы не можете удалять свои сообщения
Вы не можете голосовать в опросах
Вы не можете прикреплять файлы к сообщениям
Вы можете скачивать файлы