Самый лучший день (Жора Крыжовников) [2015, Комедия, музыка, WEB-DLRip]

Ответить на тему
Статистика раздачи
Размер:  1,46 GB   |    Зарегистрирован:  1 год 8 месяцев   |    Скачан:  10 раз

Полного источника не было: 10 месяцев 27 дней

 
     
 
 
Автор Сообщение

Crash08 ®

Пол: Мужской

Стаж: 6 лет

Сообщений: 4789

Создавать темы 25-Янв-2016 10:07

[Цитировать]

Самый лучший день

«Душа поёт!»
-Жанр: Комедия, музыка
Год выпуска: 2015
Продолжительность: 01:46:54-Режиссёр: Жора Крыжовников-В ролях: Дмитрий Нагиев, Юлия Александрова, Ольга Серябкина, Инна Чурикова, Михаил Боярский, Елена Яковлева, Владислав Ветров, Валентина Мазунина, Ян Цапник, Андрей Малахов-Описание: Успешному сотруднику ДПС Пете Васютину уже давно пора заводить семью, а он живет с мамой, хозяйкой придорожного кафе. И невеста есть — королева бензоколонки, кассирша Оля. В тот самый день, когда Петя решает сделать Оле предложение, в его служебную машину врезается пьяная поп-звезда Алина Шёпот. Чтобы избежать наказания, Алина решает соблазнить Петю…- l -Качество видео: WEB-DLRip
Формат видео: AVI
Видео: 720x400, 24.000 fps, XviD, 1568 Kbps
Аудио: 48.0 kHz, AC3 Dolby Digital, 3/2 (L,C,R,l,r) + LFE ch, 384 Kbps--
MediaInfo
General
Complete name : Camyi.Lu4wii.Deny.2015.O.WEB-DLRip.avi
Format : AVI
Format/Info : Audio Video Interleave
File size : 1.46 GiB
Duration : 1h 46mn
Overall bit rate : 1 962 Kbps
Writing application : VirtualDubMod 1.5.10.3 | www.virtualdub-fr.org || (build 2550/release)
Writing library : VirtualDubMod build 2550/release
Video #0
ID : 0
Format : MPEG-4 Visual
Format profile : Advanced Simple@L5
Format settings, BVOP : 2
Format settings, QPel : No
Format settings, GMC : No warppoints
Format settings, Matrix : Default (MPEG)
Codec ID : XVID
Codec ID/Hint : XviD
Duration : 1h 46mn
Bit rate : 1 568 Kbps
Width : 720 pixels
Height : 400 pixels
Display aspect ratio : 16:9
Frame rate : 24.000 fps
Color space : YUV
Chroma subsampling : 4:2:0
Bit depth : 8 bits
Scan type : Progressive
Compression mode : Lossy
Bits/(Pixel*Frame) : 0.227
Stream size : 1.17 GiB (80%)
Writing library : XviD 1.2.1 (UTC 2008-12-04)
Audio #1
ID : 1
Format : AC-3
Format/Info : Audio Coding 3
Mode extension : CM (complete main)
Format settings, Endianness : Big
Codec ID : 2000
Duration : 1h 46mn
Bit rate mode : Constant
Bit rate : 384 Kbps
Channel(s) : 6 channels
Channel positions : Front: L C R, Side: L R, LFE
Sampling rate : 48.0 KHz
Bit depth : 16 bits
Compression mode : Lossy
Stream size : 294 MiB (20%)
Alignment : Split accross interleaves
Interleave, duration : 42 ms (1.00 video frame)
Interleave, preload duration : 500 ms
Скриншот c названием фильма
Скриншоты
[reactorr.org].t72267.torrent
Торрент: Зарегистрирован [ 25-01-2016 10:07 ] · A591D107B84AEB77FDAC447A08771F3B2609B188

Скачать .torrent

Скачать

15 KB

Статус: проверено
Скачан: 10 раз
Размер: 1,46 GB
terms.php
[Профиль] [ЛС]
Показать сообщения:    
Ответить на тему

Текущее время: 18-Окт 23:22

Часовой пояс: UTC + 3



Вы не можете начинать темы
Вы не можете отвечать на сообщения
Вы не можете редактировать свои сообщения
Вы не можете удалять свои сообщения
Вы не можете голосовать в опросах
Вы не можете прикреплять файлы к сообщениям
Вы можете скачивать файлы