Герой / Hero ( Дипан / Dipan ) [2012, Индия, Боевик, триллер, DVDRip] Sub Rus

Ответить на тему
Статистика раздачи
Размер:  1,37 GB   |    Зарегистрирован:  3 года 10 месяцев   |    Скачан:  1 раз

Полного источника не было: 1 год 2 месяца

 
     
 
 
Автор Сообщение

Гость ®

Пол: Не указан

Создавать темы 30-Май-2013 14:35

[Цитировать]

Герой / Hero
Страна: Индия
Жанр: Боевик, триллер
Год выпуска: 2012
Продолжительность: 02:42:07
Перевод: Субтитры
Cубтитры: русские
Оригинальная аудиодорожка: Малаялами
Режиссер: Дипан / Dipan
В ролях: Притхвирадж, Шрикант, Ями Гаутам, Талайвасал Виджай, Ануп Менон, Бала, Тини Том
Описание: Пятница – день кинопремьер. Одна такая пятница может изменить судьбу любого актера, и потому все актеры с трепетом ждут конца недели. Дебютный фильм Премананда (Шрикант) имел успех, но с тех пор все проекты проваливались, поэтому все надежды актер возлагает на боевик «Борец». Только вот незадача: без дублера он не в состоянии спрыгнуть даже с крыши сарая. А дублер, как назло, - статный и фигуристый красавчик Энтони по прозвищу Тарзан (Притвирадж), показывающий чудеса физической подготовки и все время оказывающийся в центре внимания. Даже партнерша Према, Гаури (Ями Гаутам), кажется, подпала под его чары. Славу, успех, любовь – как может амбициозный герой уступить все это каскадеру? Но жизнь расставит все по своим местам, и тогда станет ясно, кто настоящий Герой.
Доп. информация:
IMDb
Сэмпл / Sample
Перевод и редакция:jyoti
Риппер:randy23

Релиз-группа:
Качество видео: DVDRip
Формат видео: AVI
Видео: Xvid, 640x288, 23.976 fps, 820 kbps
Аудио: AC3, 48 kHz , 5.1 (6 ch) , 384 kbps
Формат субтитров: hardsub (неотключаемые)
MediaInfo
General
Complete name : F:\Movies\BWT\Vremeno\Geroi.2012.DVDRip.XviD.BwTorrents.avi
Format : AVI
Format/Info : Audio Video Interleave
File size : 1.37 GiB
Duration : 2h 42mn
Overall bit rate : 1 214 Kbps
Writing application : VirtualDubMod 1.5.10.3 | www.virtualdub-fr.org || (build 2550/release)
Writing library : VirtualDubMod build 2550/release
Video
ID : 0
Format : MPEG-4 Visual
Format profile : Advanced Simple@L5
Format settings, BVOP : 2
Format settings, QPel : No
Format settings, GMC : No warppoints
Format settings, Matrix : Default (MPEG)
Codec ID : XVID
Codec ID/Hint : XviD
Duration : 2h 42mn
Bit rate : 821 Kbps
Width : 640 pixels
Height : 288 pixels
Display aspect ratio : 2.222
Frame rate : 23.976 fps
Color space : YUV
Chroma subsampling : 4:2:0
Bit depth : 8 bits
Scan type : Progressive
Compression mode : Lossy
Bits/(Pixel*Frame) : 0.186
Stream size : 952 MiB (68%)
Writing library : XviD 63
Audio
ID : 1
Format : AC-3
Format/Info : Audio Coding 3
Mode extension : CM (complete main)
Codec ID : 2000
Duration : 2h 42mn
Bit rate mode : Constant
Bit rate : 384 Kbps
Channel(s) : 6 channels
Channel positions : Front: L C R, Side: L R, LFE
Sampling rate : 48.0 KHz
Bit depth : 16 bits
Compression mode : Lossy
Stream size : 445 MiB (32%)
Alignment : Split accross interleaves
Interleave, duration : 42 ms (1.00 video frame)
Interleave, preload duration : 500 ms
Скриншот c названием фильма
[reactorr.org].t27960.torrent
Торрент: Зарегистрирован [ 30-05-2013 14:35 ] · F0E4A0E81E8CA70BFAF8E0EE8B43D8B3A551EF9C

Скачать .torrent

Скачать

14 KB

Статус: проверено
Скачан: 1 раз
Размер: 1,37 GB
terms.php
 

lamandz1a

Пол: Не указан

Стаж: 1 год 2 месяца

Сообщений: 1

Создавать темы 29-Янв-2016 13:48 (спустя 2 года 7 месяцев)

[Цитировать]

1
1
[Профиль] [ЛС]
Показать сообщения:    
Ответить на тему

Текущее время: 27-Апр 08:35

Часовой пояс: UTC + 3



Вы не можете начинать темы
Вы не можете отвечать на сообщения
Вы не можете редактировать свои сообщения
Вы не можете удалять свои сообщения
Вы не можете голосовать в опросах
Вы не можете прикреплять файлы к сообщениям
Вы можете скачивать файлы