Лондон 2012. Обратный отсчет [2012, Перед Олимпиадой, Спорт 1/RU/IPTVRip]

Ответить на тему
Статистика раздачи
Размер:  289 MB   |    Зарегистрирован:  6 лет 1 месяц   |    Скачан:  0 раз

Полного источника не было: Никогда

 
     
 
 
Автор Сообщение

Philosoph ®

Пол: Не указан

Стаж: 6 лет 6 месяцев

Сообщений: 1269

Создавать темы 13-Авг-2012 00:56

[Цитировать]

Лондон 2012. Обратный отсчет
Дата/Год выпуска: 2012
Описание: Программа расскажет о выдающихся спортсменах, которые примут участие в олимпиаде в Лондоне 2012.
Автор рипа/записи: Собственный рип
Качество: IPTVRip
Формат видео: AVI
Видео: Xvid 720x400 (16:9) 1500kbps 25.00fps
Аудио: MPEG Audio Layer 3 48000Hz stereo 128kbps
Media Info
GeneralComplete name : D:\Обратный Отсчет. Лондон 2012.aviFormat : AVIFormat/Info : Audio Video InterleaveFile size : 289 MiBDuration : 25mn 9sOverall bit rate : 1 604 KbpsWriting application : VirtualDubMod 1.5.10.2 (build 2540/release)Writing library : VirtualDubMod build 2540/release
VideoID : 0Format : MPEG-4 VisualFormat profile : Advanced Simple@L5Format settings, BVOP : 2Format settings, QPel : NoFormat settings, GMC : No warppointsFormat settings, Matrix : Default (H.263)Muxing mode : Packed bitstreamCodec ID : XVIDCodec ID/Hint : XviDDuration : 25mn 9sBit rate : 1 467 KbpsWidth : 720 pixelsHeight : 400 pixelsDisplay aspect ratio : 16:9Frame rate : 25.000 fpsColor space : YUVChroma subsampling : 4:2:0Bit depth : 8 bitsScan type : ProgressiveCompression mode : LossyBits/(Pixel*Frame) : 0.204Stream size : 264 MiB (91%)Writing library : XviD 64
AudioID : 1Format : MPEG AudioFormat version : Version 1Format profile : Layer 3Mode : Joint stereoMode extension : MS StereoCodec ID : 55Codec ID/Hint : MP3Duration : 25mn 9sBit rate mode : ConstantBit rate : 128 KbpsChannel(s) : 2 channelsSampling rate : 48.0 KHzCompression mode : LossyStream size : 23.0 MiB (8%)Alignment : Aligned on interleavesInterleave, duration : 40 ms (1.00 video frame)Interleave, preload duration : 504 ms
Продолжительность
00:25:09
Скриншоты
[reactorr.org].t12327.torrent
Торрент: Зарегистрирован [ 13-08-2012 00:56 ] · 441CB3B1E9D73F3AF136E6A0AE5D1465E8B728FE

Скачать .torrent

Скачать

12 KB

Статус: проверено
Скачан: 0 раз
Размер: 289 MB
terms.php
[Профиль] [ЛС]

EdwardJic

Пол: Мужской

Стаж: 21 день

Сообщений: 1

Откуда: Haiti

Создавать темы 03-Сен-2018 08:14 (спустя 6 лет)

[Цитировать]

Регистрация БК Фонбет
Вложение (3 KB)

img

[Профиль] [ЛС]
Показать сообщения:    
Ответить на тему

Текущее время: 24-Сен 09:31

Часовой пояс: UTC + 3



Вы не можете начинать темы
Вы не можете отвечать на сообщения
Вы не можете редактировать свои сообщения
Вы не можете удалять свои сообщения
Вы не можете голосовать в опросах
Вы не можете прикреплять файлы к сообщениям
Вы можете скачивать файлы