Царапина (Руслан Юлтаев) [2007, драма, мистика, DVDScr] Sub Eng

Ответить на тему
Статистика раздачи
Размер:  723 MB   |    Зарегистрирован:  4 года 5 месяцев   |    Скачан:  0 раз
Сидов:  1  [  0 KB/s  ]   Подробная статистика пиров
 
     
 
 
Автор Сообщение

Crash08 ®

Пол: Мужской

Стаж: 5 лет 8 месяцев

Сообщений: 4789

Создавать темы 29-Дек-2012 19:35

[Цитировать]

Царапина
Жанр: драма, мистика
Год выпуска: 2007
Продолжительность: 01:32:18 (01:39:26 - 00:07:08)
Субтитры: есть (английские, неотключаемые)
Режиссёр: Руслан Юлтаев
В ролях: Регина Ромманова (Сайдашева), Михаил Ефремов, Алексей Булдаков, Владимир Толоконников, Дарья Никитина, Юля Огородникова, Алексей Николаев, Степан Соболев, Алсу и Айгуль Гайнетдиновы, Владимир Н.Высоцкий, Мурат Сафаров, Дмитрий Скорняков, Семён Выдрин, Антон Соловьев, Нелли Пакина, Сергей Золотов, Алексей Колояров, Динар Миназев
Описание: События в фильме происходят в 1980 году. Городская учительница Мария, пытаясь сбежать от себя после огромной личной драмы — по ее вине погибает дочь, — оказывается в глухой маленькой деревушке где-то в центральной части России. Ее давят воспоминания о погибшей дочери, она расстается с мужем. В глуши надеется обрести душевное равновесие, но тут начинается цепь загадочных и в чём-то даже мистических событий...
Доп. информация: В рипе имеется вставка, фрагмент без звука и изображения ("черный экран"), длящийся 7 минут 8 секунд (00:59:09-01:06:17). При этом из сюжета ничего не пропадает, действие продолжается с того момента, на котором прервалось.
Семпл: http://multi-up.com/758673
Качество видео: DVDScr
Формат видео: AVI
Видео: 628x352 (1.78:1), 25 fps, XviD build 50, 877 kbps avg, 0.16 bit/pixel
Аудио: 48 kHz, AC3 Dolby Digital, 2/0 (L,R) ch, 128.00 kbps avg
Субтитры: English (неотключаемые)
MediaInfo
Полное имя : Царапина.avi
Формат : AVI
Формат/Информация : Audio Video Interleave
Размер файла : 723 Мбайт
Продолжительность : 1 ч. 39 м.
Общий поток : 1017 Кбит/сек
Программа кодирования : Lavf52.94.0
Видео
Идентификатор : 0
Формат : xvid
Идентификатор кодека : xvid
Продолжительность : 1 ч. 39 м.
Битрейт : 878 Кбит/сек
Ширина : 628 пикселей
Высота : 352 пикселя
Соотношение сторон : 16:9
Частота кадров : 25,000 кадров/сек
Бит/(Пиксели*Кадры) : 0.159
Размер потока : 624 Мбайт (86%)
Аудио
Идентификатор : 1
Формат : AC-3
Формат/Информация : Audio Coding 3
Расширение режима : CM (complete main)
Параметр Endianness формата : Big
Идентификатор кодека : 2000
Продолжительность : 1 ч. 39 м.
Вид битрейта : Постоянный
Битрейт : 128 Кбит/сек
Каналы : 2 канала
Расположение каналов : Front: L R
Частота : 48,0 КГц
Битовая глубина : 16 бит
Метод сжатия : С потерями
Размер потока : 91,0 Мбайт (13%)
Выравнивание : Соединение по промежуткам
Продолжительность промежутка : 32 мс. (0,80 видеокадр)
Время предзагрузки промежутка : 32 мс.
Скриншоты
[reactorr.org].t17254.torrent
Торрент: Зарегистрирован [ 29-12-2012 19:35 ] · DA57582C6E852C378FC5B3509A39353FBE21EDA6

Скачать .torrent

Скачать

15 KB

Статус: проверено
Скачан: 0 раз
Размер: 723 MB
terms.php
[Профиль] [ЛС]
Показать сообщения:    
Ответить на тему

Текущее время: 23-Июн 20:21

Часовой пояс: UTC + 3



Вы не можете начинать темы
Вы не можете отвечать на сообщения
Вы не можете редактировать свои сообщения
Вы не можете удалять свои сообщения
Вы не можете голосовать в опросах
Вы не можете прикреплять файлы к сообщениям
Вы можете скачивать файлы