Снежная королева (Елена Райская) [2006, мелодрама, SATRip]

Ответить на тему
Статистика раздачи
Размер:  1,45 GB   |    Зарегистрирован:  4 года 9 месяцев   |    Скачан:  0 раз
Сидов:  17  [  0 KB/s  ]   Подробная статистика пиров
 
     
 
 
Автор Сообщение

Crash08 ®

Пол: Мужской

Стаж: 6 лет

Сообщений: 4789

Создавать темы 30-Дек-2012 15:05

[Цитировать]

Снежная королева
Жанр: мелодрама
Год выпуска: 2006
Продолжительность: 01:39:51
Режиссёр: Елена Райская
В ролях:
Агнесса Зелтыня
Марат Башаров
Яна Райская
Станислав Эрдлей
Регина Мянник
Евгения Дмитриева
Виталий Альшанский
Андрей Подошьян
Иван Оганесян
Людмила Нильская
Описание:
Старая сказка на новый лад. Жили-были в Москве Кай и Грета. Были они молоды и красивы, дружили с детства и собирались пожениться. Но во время предсвадебной поездки Кай случайно увидел холодную красавицу и влюбился. Он бросил Грету и запретил его искать. Но Грета не послушалась и поехала спасать своего любимого…
Доп. информация:

Качество видео: SATRip, исходник - DVB
Формат видео: AVI
Видео: 704x400 (1.76:1), 25 fps, XviD build 65 ~1881 kbps avg, 0.27 bit/pixel
Аудио: 48 kHz, AC3 Dolby Digital, 2/0 (L,R) ch, ~192 kbps
Сэмпл
Сравнения
Сравнение с DVDRip-ом от aabk - здесь
MediaInfo
Общее
Полное имя : D:\Torrent\Снежная королева\Снежная королева_1.45\Снежная королева_1.45.avi
Формат : AVI
Формат/Информация : Audio Video Interleave
Размер файла : 1,45 Гбайт
Продолжительность : 1 ч. 39 м.
Общий поток : 2084 Кбит/сек
Программа кодирования : VirtualDubMod 1.5.10.3 | www.virtualdub-fr.org || (build 2550/release)
Библиотека кодирования : VirtualDubMod build 2550/release
Видео
Идентификатор : 0
Формат : MPEG-4 Visual
Профиль формата : Advanced Simple@L5
Параметр BVOP формата : 1
Параметр QPel формата : Нет
Параметр GMC формата : Без точки перехода
Параметр матрицы формата : Выборочная
Идентификатор кодека : XVID
Идентификатор кодека/Подсказка : XviD
Продолжительность : 1 ч. 39 м.
Битрейт : 1882 Кбит/сек
Ширина : 704 пикселя
Высота : 400 пикселей
Соотношение сторон : 16:9
Частота кадров : 25,000 кадров/сек
Цветовое пространство : YUV
Субдискретизация насыщенности : 4:2:0
Битовая глубина : 8 бит
Тип развёртки : Прогрессивная
Метод сжатия : С потерями
Бит/(Пиксели*Кадры) : 0.267
Размер потока : 1,31 Гбайт (90%)
Библиотека кодирования : XviD 65
Аудио
Идентификатор : 1
Формат : AC-3
Формат/Информация : Audio Coding 3
Расширение режима : CM (complete main)
Параметр Endianness формата : Big
Идентификатор кодека : 2000
Продолжительность : 1 ч. 39 м.
Вид битрейта : Постоянный
Битрейт : 192 Кбит/сек
Каналы : 2 канала
Расположение каналов : Front: L R
Частота : 48,0 КГц
Битовая глубина : 16 бит
Метод сжатия : С потерями
Размер потока : 137 Мбайт (9%)
Выравнивание : Разделение по промежуткам
Продолжительность промежутка : 40 мс. (1,00 видеокадр)
Время предзагрузки промежутка : 500 мс.
Скриншоты
[reactorr.org].t17288.torrent
Торрент: Зарегистрирован [ 30-12-2012 15:05 ] · 85E0EF5BBAB194A36E1BC7893922D6967A3F4E04

Скачать .torrent

Скачать

15 KB

Статус: проверено
Скачан: 0 раз
Размер: 1,45 GB
terms.php
[Профиль] [ЛС]
Показать сообщения:    
Ответить на тему

Текущее время: 22-Окт 09:37

Часовой пояс: UTC + 3



Вы не можете начинать темы
Вы не можете отвечать на сообщения
Вы не можете редактировать свои сообщения
Вы не можете удалять свои сообщения
Вы не можете голосовать в опросах
Вы не можете прикреплять файлы к сообщениям
Вы можете скачивать файлы