Операция «Праведник» (Павел Бардин, Мария Маханько) [2009, мелодрама, комедия, TVRip]

Ответить на тему
Статистика раздачи
Размер:  1,45 GB   |    Зарегистрирован:  4 года 2 месяца   |    Скачан:  1 раз

Полного источника не было: 1 год 1 месяц

 
     
 
 
Автор Сообщение

Crash08 ®

Пол: Мужской

Стаж: 5 лет 5 месяцев

Сообщений: 4789

Создавать темы 06-Янв-2013 12:05

[Цитировать]

Операция «Праведник»
Жанр: мелодрама, комедия
Год выпуска: 2009
Продолжительность: 01:33:20
Режиссёр: Павел Бардин, Мария Маханько
В ролях:
Мария Машкова
Петр Баранчеев
Виктор Добронравов
Антонина Деманова
Наталия Антонова
Карэн Бадалов
Галина Польских
Тимофей Трибунцев
Станислав Дужников
Евгения Дмитриева
Римма Маркова
Описание:
История в фильме состоит из двух кардинально отличающихся друг от друга параллелей — ада и земной жизни. Земная жизнь — это та, в которой мы живем, она легко представляема и узнаваема для большинства из нас: московские улицы, квартиры обычных людей, офис издательства, кафе, стандартная районная поликлиника. Вот только земной дом Чёрта больше похож на старую антикварную лавку…
Доп. информация:

Качество видео: TVRip, исходник - TVRip
Формат видео: AVI
Видео: 704x384 (1.83:1), 25 fps, XviD build 65 ~2026 kbps avg, 0.30 bit/pixel
Аудио: 48 kHz, AC3 Dolby Digital, 2/0 (L,R) ch, ~192 kbps
Семпл
Сравнения
MediaInfo
Общее
Полное имя : D:\Torrent\Операция «Праведник»\Операция Праведник_1.45\Операция Праведник_1.45.avi
Формат : AVI
Формат/Информация : Audio Video Interleave
Размер файла : 1,45 Гбайт
Продолжительность : 1 ч. 33 м.
Общий поток : 2228 Кбит/сек
Программа кодирования : VirtualDubMod 1.5.10.3 | www.virtualdub-fr.org || (build 2550/release)
Библиотека кодирования : VirtualDubMod build 2550/release
Видео
Идентификатор : 0
Формат : MPEG-4 Visual
Профиль формата : Advanced Simple@L5
Параметр BVOP формата : 1
Параметр QPel формата : Нет
Параметр GMC формата : Без точки перехода
Параметр матрицы формата : Выборочная
Идентификатор кодека : XVID
Идентификатор кодека/Подсказка : XviD
Продолжительность : 1 ч. 33 м.
Битрейт : 2027 Кбит/сек
Ширина : 704 пикселя
Высота : 384 пикселя
Соотношение сторон : 1,85:1
Частота кадров : 25,000 кадров/сек
Цветовое пространство : YUV
Субдискретизация насыщенности : 4:2:0
Битовая глубина : 8 бит
Тип развёртки : Прогрессивная
Метод сжатия : С потерями
Бит/(Пиксели*Кадры) : 0.300
Размер потока : 1,32 Гбайт (91%)
Библиотека кодирования : XviD 65
Аудио
Идентификатор : 1
Формат : AC-3
Формат/Информация : Audio Coding 3
Расширение режима : CM (complete main)
Параметр Endianness формата : Big
Идентификатор кодека : 2000
Продолжительность : 1 ч. 33 м.
Вид битрейта : Постоянный
Битрейт : 192 Кбит/сек
Каналы : 2 канала
Расположение каналов : Front: L R
Частота : 48,0 КГц
Битовая глубина : 16 бит
Метод сжатия : С потерями
Размер потока : 128 Мбайт (9%)
Выравнивание : Разделение по промежуткам
Продолжительность промежутка : 40 мс. (1,00 видеокадр)
Время предзагрузки промежутка : 500 мс.
Скриншот c названием фильма
Скриншоты
[reactorr.org].t17516.torrent
Торрент: Зарегистрирован [ 06-01-2013 12:05 ] · 60BECFD8D40EB682458B3DE87EAE03098B418CD5

Скачать .torrent

Скачать

15 KB

Статус: проверено
Скачан: 1 раз
Размер: 1,45 GB
terms.php
[Профиль] [ЛС]
Показать сообщения:    
Ответить на тему

Текущее время: 29-Мар 22:15

Часовой пояс: UTC + 3



Вы не можете начинать темы
Вы не можете отвечать на сообщения
Вы не можете редактировать свои сообщения
Вы не можете удалять свои сообщения
Вы не можете голосовать в опросах
Вы не можете прикреплять файлы к сообщениям
Вы можете скачивать файлы