1612: Хроники Смутного времени (Владимир Хотиненко) [2007, драма, приключения, история, BDRip]

Ответить на тему
Статистика раздачи
Размер:  1,09 GB   |    Зарегистрирован:  4 года 7 месяцев   |    Скачан:  1 раз
Сидов:  8  [  0 KB/s  ]   Подробная статистика пиров
 
     
 
 
Автор Сообщение

Crash08 ®

Пол: Мужской

Стаж: 5 лет 10 месяцев

Сообщений: 4789

Создавать темы 07-Янв-2013 20:35

[Цитировать]

1612: Хроники Смутного времени
Жанр: драма, приключения, история
Год выпуска: 2007
Продолжительность: 02:23:25
Режиссёр: Владимир Хотиненко
В ролях:
Михаил Пореченков
Андрей Федорцов
Александр Балуев
Марат Башаров
Петр Кислов
Виолетта Давыдовская
Рамон Ланга
Дмитрий Мухамадеев
Александр Самойленко
Виктор Шамиров
Описание:
После смерти царя Бориса Годунова убиты его вдова и юный наследник Федор. На престол восходит самозванец Лжедмитрий. Но год спустя убит и он, власть переходит из рук в руки. В России наступает Смута…
Единственный свидетель убийства царской семьи — мальчишка-слуга Андрей. В его памяти отпечаталась сцена расправы над законными правителями, но главное — он не может забыть дочь Бориса Годунова, красавицу Ксению. Жива ли царевна? Где она теперь?..
Годы спустя невероятные обстоятельства сводят повзрослевшего Андрея с испанским дворянином Альваром Борха, который вскоре гибнет в схватке с разбойниками. Присвоив его одежду и имя, Андрей превращается в другого человека. Теперь он — «гишпанский кабальер», «воин без страха и упрека», охотник за удачей. И главное — он может воплотить свою мечту: спасти Ксению Годунову и завоевать ее сердце.
Доп. информация:

На иностранную речь - вшитые русские субтитры - уже было в исходнике, как, впрочем, и на DVD9 от CP Digital. Кроме того, в исходнике очень сильно плавает наполнение кадра, даже на протяжении одной сцены, поэтому полный кроп сделать нереально.
Качество видео: BDRip, исходник - Blu-ray disc 1080i
Формат видео: AVI
Видео: 656x272 (2.41:1), 25 fps, XviD build 65 ~951 kbps avg, 0.21 bit/pixel
Аудио: 48 kHz, MPEG Layer 3, 2 ch, ~128.00 kbps avg
Семпл
Сравнения
Сравнение с DVDRip-ом от Гость - здесь
MediaInfo
Общее
Полное имя : D:\Torrent\1612 - Хроники Смутного времени\1612 - Хроники Смутного времени_1.09\1612 - Хроники Смутного времени_1.09.avi
Формат : AVI
Формат/Информация : Audio Video Interleave
Размер файла : 1,09 Гбайт
Продолжительность : 2 ч. 23 м.
Общий поток : 1089 Кбит/сек
Программа кодирования : VirtualDubModRus 1.5.10.2 (build 2540/release)
Библиотека кодирования : VirtualDubMod build 2540/release
Видео
Идентификатор : 0
Формат : MPEG-4 Visual
Профиль формата : Advanced Simple@L5
Параметр BVOP формата : 1
Параметр QPel формата : Нет
Параметр GMC формата : Без точки перехода
Параметр матрицы формата : Выборочная
Идентификатор кодека : XVID
Идентификатор кодека/Подсказка : XviD
Продолжительность : 2 ч. 23 м.
Битрейт : 951 Кбит/сек
Ширина : 656 пикселей
Высота : 272 пикселя
Соотношение сторон : 2,40:1
Частота кадров : 25,000 кадров/сек
Цветовое пространство : YUV
Субдискретизация насыщенности : 4:2:0
Битовая глубина : 8 бит
Тип развёртки : Прогрессивная
Метод сжатия : С потерями
Бит/(Пиксели*Кадры) : 0.213
Размер потока : 976 Мбайт (87%)
Библиотека кодирования : XviD 65
Аудио
Идентификатор : 1
Формат : MPEG Audio
Версия формата : Version 1
Профиль формата : Layer 3
Режим : Joint stereo
Расширение режима : MS Stereo
Идентификатор кодека : 55
Идентификатор кодека/Подсказка : MP3
Продолжительность : 2 ч. 23 м.
Вид битрейта : Постоянный
Битрейт : 128 Кбит/сек
Каналы : 2 канала
Частота : 48,0 КГц
Метод сжатия : С потерями
Размер потока : 131 Мбайт (12%)
Выравнивание : Разделение по промежуткам
Продолжительность промежутка : 40 мс. (1,00 видеокадр)
Время предзагрузки промежутка : 500 мс.
Скриншот c названием фильма
Скриншоты
[reactorr.org].t17572.torrent
Торрент: Зарегистрирован [ 07-01-2013 20:35 ] · 65EEE16F23C6F353897F68FFE66A0136558268CD

Скачать .torrent

Скачать

11 KB

Статус: проверено
Скачан: 1 раз
Размер: 1,09 GB
terms.php
[Профиль] [ЛС]
Показать сообщения:    
Ответить на тему

Текущее время: 24-Авг 09:40

Часовой пояс: UTC + 3



Вы не можете начинать темы
Вы не можете отвечать на сообщения
Вы не можете редактировать свои сообщения
Вы не можете удалять свои сообщения
Вы не можете голосовать в опросах
Вы не можете прикреплять файлы к сообщениям
Вы можете скачивать файлы