1612: Хроники Смутного времени (Владимир Хотиненко) [2007, драма, приключения, DVDRip]

Ответить на тему
Статистика раздачи
Размер:  1,46 GB   |    Зарегистрирован:  4 года 3 месяца   |    Скачан:  0 раз
Сидов:  30  [  0 KB/s  ]   Подробная статистика пиров
 
     
 
 
Автор Сообщение

Crash08 ®

Пол: Мужской

Стаж: 5 лет 6 месяцев

Сообщений: 4789

Создавать темы 12-Янв-2013 21:55

[Цитировать]

1612: Хроники Смутного времени
Жанр: драма, приключения
Год выпуска: 2007
Продолжительность: 02:23:25
Режиссёр: Владимир Хотиненко
В ролях:
Пётр Кислов
Артур Смольянинов
Михал Жебровский
Виолетта Давыдовская
Александр Балуев
Марат Башаров
Рамон Ланга
Михаил Пореченков
Александр Самойленко
Валерий Золотухин
Виктор Шамиров
Даниил Спиваковский
Габриэль Ферцетти
Дмитрий Ульянов
Эвклид Кюрдзидис
Дмитрий Мухамадеев
Описание:
После смерти царя Бориса Годунова убиты его вдова и юный наследник Федор. На престол восходит самозванец Лжедмитрий. Но год спустя убит и он, власть переходит из рук в руки. В России наступает Смута…
Единственный свидетель убийства царской семьи — мальчишка-слуга Андрей. В его памяти отпечаталась сцена расправы над законными правителями, но главное — он не может забыть дочь Бориса Годунова, красавицу Ксению. Жива ли царевна? Где она теперь?..
Годы спустя невероятные обстоятельства сводят повзрослевшего Андрея с испанским дворянином Альваром Борха, который вскоре гибнет в схватке с разбойниками. Присвоив его одежду и имя, Андрей превращается в другого человека. Теперь он — «гишпанский кабальер», «воин без страха и упрека», охотник за удачей. И главное — он может воплотить свою мечту: спасти Ксению Годунову и завоевать ее сердце...
Доп. информация:

Плавает наполнение кадра, даже на протяжении одной сцены, поэтому полный кроп сделать нереально. И вшитые русские субтитры на иностранную речь.
Качество видео: DVDRip, исходник - DVD9
Формат видео: AVI
Видео: 720x304 (2.37:1), 25 fps, XviD build 65 ~1254 kbps avg, 0.23 bit/pixel
Аудио: 48 kHz, AC3 Dolby Digital, 2/0 (L,R) ch, ~192 kbps
Семпл
Сравнения
Сравнение с DVDRip-ом от zim2001 - здесь
MediaInfo
Общее
Полное имя : D:\Torrent\1612 - Хроники Смутного времени\1612 - Хроники Смутного времени_1.46\1612_DVD_1.46.avi
Формат : AVI
Формат/Информация : Audio Video Interleave
Размер файла : 1,46 Гбайт
Продолжительность : 2 ч. 23 м.
Общий поток : 1456 Кбит/сек
Программа кодирования : VirtualDubMod 1.5.10.3 | www.virtualdub-fr.org || (build 2550/release)
Библиотека кодирования : VirtualDubMod build 2550/release
Видео
Идентификатор : 0
Формат : MPEG-4 Visual
Профиль формата : Advanced Simple@L5
Параметр BVOP формата : 1
Параметр QPel формата : Нет
Параметр GMC формата : Без точки перехода
Параметр матрицы формата : Выборочная
Идентификатор кодека : XVID
Идентификатор кодека/Подсказка : XviD
Продолжительность : 2 ч. 23 м.
Битрейт : 1254 Кбит/сек
Ширина : 720 пикселей
Высота : 304 пикселя
Соотношение сторон : 2,35:1
Частота кадров : 25,000 кадров/сек
Цветовое пространство : YUV
Субдискретизация насыщенности : 4:2:0
Битовая глубина : 8 бит
Тип развёртки : Прогрессивная
Метод сжатия : С потерями
Бит/(Пиксели*Кадры) : 0.229
Размер потока : 1,26 Гбайт (86%)
Библиотека кодирования : XviD 65
Аудио
Идентификатор : 1
Формат : AC-3
Формат/Информация : Audio Coding 3
Расширение режима : CM (complete main)
Параметр Endianness формата : Big
Идентификатор кодека : 2000
Продолжительность : 2 ч. 23 м.
Вид битрейта : Постоянный
Битрейт : 192 Кбит/сек
Каналы : 2 канала
Расположение каналов : Front: L R
Частота : 48,0 КГц
Битовая глубина : 16 бит
Метод сжатия : С потерями
Размер потока : 197 Мбайт (13%)
Выравнивание : Разделение по промежуткам
Продолжительность промежутка : 40 мс. (1,00 видеокадр)
Время предзагрузки промежутка : 500 мс.
Скриншот c названием фильма
Скриншоты
[reactorr.org].t17778.torrent
Торрент: Зарегистрирован [ 12-01-2013 21:55 ] · EE3E7C2BC9FF91AE150A27EE1CC2C1A8605C9312

Скачать .torrent

Скачать

15 KB

Статус: проверено
Скачан: 0 раз
Размер: 1,46 GB
terms.php
[Профиль] [ЛС]
Показать сообщения:    
Ответить на тему

Текущее время: 27-Апр 20:14

Часовой пояс: UTC + 3



Вы не можете начинать темы
Вы не можете отвечать на сообщения
Вы не можете редактировать свои сообщения
Вы не можете удалять свои сообщения
Вы не можете голосовать в опросах
Вы не можете прикреплять файлы к сообщениям
Вы можете скачивать файлы