Последнее изгнание дьявола 2 / The Last Exorcism Part II (2013) [1080p] HDTVRip [Трейлер]

Ответить на тему
Статистика раздачи
Размер:  155 MB   |    Зарегистрирован:  4 года 9 месяцев   |    Скачан:  0 раз

Полного источника не было: Никогда

 
     
 
 
Автор Сообщение

Philosoph ®

Пол: Не указан

Стаж: 5 лет 7 месяцев

Сообщений: 1269

Создавать темы 20-Янв-2013 19:09

[Цитировать]

-Последнее изгнание дьявола 2 / The Last Exorcism Part II- -Русское название: Последнее изгнание дьявола 2
Оригинальное название: The Last Exorcism Part II
Год выпуска: 2013
Производство: США / Arcade Pictures, Strike Entertainment, Studio Canal
Жанр: Ужасы, Триллер
Перевод: Профессиональный (многоголосый, закадровый)-Дата мировой премьеры: 28 февраля 2013
Дата российской премьеры: 28 февраля 2013, «West»
Дата выхода DVD/Blu Ray: N/A-Режиссер: Эд Гасс-Доннели
Актеры: Эшли Белл, Спенсер Трит Кларк, Луис Хертум, Дэвид Дженсен, Элтон ЛеБланк, Эндрю Сенсениг, Мьюз Уотсон-Описание фильма: Нелл находят в лесу — грязную и напуганную, только что сбежавшую со страшного ритуала. Вся ее семья погибла и девушку отправляют в Новый Орлеан — приют для девочек. Там она попадает под присмотр терапевта Фрэнка Мерле. Жизнь вроде бы налаживается, Нелл влюбляется в местного мальчика, но в самый неподходящий момент демон вновь объявляется и овладевает Нелл. Теперь он хочет от нее нечто большее…- -Продолжительность: 00:02:35
Качество видео: HDTVRip-Видеокодек: MPEG-4 AVC/H.264
Битрейт видео: ~8 204 Kbps
Размер кадра: 1920x812
Аудиокодек: AAC 2.0
Битрейт аудио: 128 Kbps
MediaInfo:
General
Complete name                            : E:\Last-Exorcism-Part-II_-rus_trl.mp4
Format                                   : MPEG-4
Format profile                           : QuickTime
Codec ID                                 : qt
File size                                : 155 MiB
Duration                                 : 2mn 35s
Overall bit rate                         : 8 337 Kbps
Encoded date                             : UTC 2013-01-11 20:00:00
Tagged date                              : UTC 2013-01-11 20:00:00
Writing application                      : Lavf53.10.0
Video
ID                                       : 1
Format                                   : AVC
Format/Info                              : Advanced Video Codec
Format profile                           : [url=mailto:Main@L5.1]Main@L5.1[/url]
Format settings, CABAC                   : Yes
Format settings, ReFrames                : 1 frame
Codec ID                                 : avc1
Codec ID/Info                            : Advanced Video Coding
Duration                                 : 2mn 35s
Bit rate                                 : 8 204 Kbps
Width                                    : 1 920 pixels
Height                                   : 812 pixels
Display aspect ratio                     : 2.35:1
Frame rate mode                          : Constant
Frame rate                               : 29.970 fps
Color space                              : YUV
Chroma subsampling                       : 4:2:0
Bit depth                                : 8 bits
Scan type                                : Progressive
Bits/(Pixel*Frame)                       : 0.176
Stream size                              : 152 MiB (98%)
Language                                 : English
Encoded date                             : UTC 2013-01-11 20:00:00
Tagged date                              : UTC 2013-01-11 20:00:00
Audio
ID                                       : 2
Format                                   : AAC
Format/Info                              : Advanced Audio Codec
Format profile                           : LC
Codec ID                                 : 40
Duration                                 : 2mn 35s
Bit rate mode                            : Constant
Bit rate                                 : 128 Kbps
Channel(s)                               : 2 channels
Channel positions                        : Front: L R
Sampling rate                            : 48.0 KHz
Compression mode                         : Lossy
Stream size                              : 2.37 MiB (2%)
Language                                 : English
Encoded date                             : UTC 2013-01-11 20:00:00
Tagged date                              : UTC 2013-01-11 20:00:00
Скриншоты:- -
Время раздачи: 24/7 до 3х скачавших, дальше по мере возможности...
Постер и оформление Long__Boy®
[reactorr.org].t18035.torrent
Торрент: Зарегистрирован [ 20-01-2013 19:09 ] · 40D9882542260D5265BB671C2A98255C935CDA23

Скачать .torrent

Скачать

13 KB

Статус: проверено
Скачан: 0 раз
Размер: 155 MB
terms.php
[Профиль] [ЛС]
Показать сообщения:    
Ответить на тему

Текущее время: 24-Окт 14:22

Часовой пояс: UTC + 3



Вы не можете начинать темы
Вы не можете отвечать на сообщения
Вы не можете редактировать свои сообщения
Вы не можете удалять свои сообщения
Вы не можете голосовать в опросах
Вы не можете прикреплять файлы к сообщениям
Вы можете скачивать файлы