G.I. Joe: Бросок кобры 2 / G.I. Joe: Retaliation (2013) [1080p] HDTVRip [Трейлер]

Ответить на тему
Статистика раздачи
Размер:  140 MB   |    Зарегистрирован:  4 года 8 месяцев   |    Скачан:  0 раз

Полного источника не было: 4 года 8 месяцев

 
     
 
 
Автор Сообщение

Philosoph ®

Пол: Не указан

Стаж: 5 лет 7 месяцев

Сообщений: 1269

Создавать темы 20-Янв-2013 19:12

[Цитировать]

-G.I. Joe: Бросок кобры 2 / G.I. Joe: Retaliation- -Русское название: G.I. Joe: Бросок кобры 2
Оригинальное название: G.I. Joe: Retaliation
Год выпуска: 2013
Производство: Канада, США
Жанр: Фантастика, Боевик
Перевод: Дублированный-Дата мировой премьеры: 27 марта 2013
Дата российской премьеры: 28 марта 2013, «Централ Партнершип» 3D
Дата выхода DVD/Blu-Ray релиза: Август 2013, «Новый Диск»-Режиссер: Джон М. Чу
Актеры: Дуэйн Джонсон, Брюс Уиллис, Ченнинг Татум, Рэй Стивенсон, RZA, Рэй Парк, Джонатан Прайс, Адрианна Пэлики, Элоди Юнг, Арнольд Вослу, Бён Хон Ли, Ди Джей Котрона, Уолтон Гоггинс, Джозеф Маззелло, Илья Волох-Описание фильма:
Во второй части отряд «G.I. Joe» вновь объявит вызов группировке «Кобра» и вступит в противостояние с правительством…- -Продолжительность: 00:01:55
Качество видео: HDTVRip-Видеокодек: MPEG-4 AVC/H.264
Битрейт видео: ~10.0 Mbps
Размер кадра: 1920x1080
Аудиокодек: AC3 2.0
Битрейт аудио: 320 Kbps
MediaInfo:
General
Complete name                            : E:\gijoe2_trailer3_rus_1080.mp4
Format                                   : MPEG-4
Format profile                           : Base Media
Codec ID                                 : isom
File size                                : 140 MiB
Duration                                 : 1mn 55s
Overall bit rate                         : 10.2 Mbps
Writing application                      : Lavf53.18.0
Video
ID                                       : 1
Format                                   : AVC
Format/Info                              : Advanced Video Codec
Format profile                           : [url=mailto:High@L4.0]High@L4.0[/url]
Format settings, CABAC                   : Yes
Format settings, ReFrames                : 4 frames
Codec ID                                 : avc1
Codec ID/Info                            : Advanced Video Coding
Duration                                 : 1mn 55s
Bit rate                                 : 10 000 Kbps
Width                                    : 1 920 pixels
Height                                   : 1 080 pixels
Display aspect ratio                     : 16:9
Frame rate mode                          : Constant
Frame rate                               : 29.970 fps
Color space                              : YUV
Chroma subsampling                       : 4:2:0
Bit depth                                : 8 bits
Scan type                                : Progressive
Bits/(Pixel*Frame)                       : 0.161
Stream size                              : 136 MiB (97%)
Writing library                          : x264 core 119
Encoding settings                        : cabac=1 / ref=1 / deblock=1:0:0 / analyse=0x3:0x3 / me=dia / subme=1 / psy=1 / psy_rd=1.00:0.00 / mixed_ref=0 / me_range=16 / chroma_me=1 / trellis=0 / 8x8dct=1 / cqm=0 / deadzone=21,11 / fast_pskip=1 / chroma_qp_offset=0 / threads=4 / sliced_threads=0 / nr=0 / decimate=1 / interlaced=0 / bluray_compat=0 / constrained_intra=0 / bframes=3 / b_pyramid=2 / b_adapt=1 / b_bias=0 / direct=1 / weightb=1 / open_gop=0 / weightp=1 / keyint=250 / keyint_min=25 / scenecut=40 / intra_refresh=0 / rc=abr / mbtree=0 / bitrate=10000 / ratetol=1.0 / qcomp=0.60 / qpmin=0 / qpmax=69 / qpstep=4 / ip_ratio=1.40 / pb_ratio=1.30 / aq=1:1.00
Audio
ID                                       : 2
Format                                   : AC-3
Format/Info                              : Audio Coding 3
Mode extension                           : CM (complete main)
Format settings, Endianness              : Big
Codec ID                                 : ac-3
Duration                                 : 1mn 55s
Bit rate mode                            : Constant
Bit rate                                 : 320 Kbps
Channel(s)                               : 2 channels
Channel positions                        : Front: L R
Sampling rate                            : 48.0 KHz
Bit depth                                : 16 bits
Compression mode                         : Lossy
Delay relative to video                  : 67ms
Stream size                              : 4.39 MiB (3%)
Скриншоты:- -
Время раздачи: 24/7 до 3х скачавших, дальше по мере возможности...
Постер и оформление Long__Boy®
[reactorr.org].t18036.torrent
Торрент: Зарегистрирован [ 20-01-2013 19:12 ] · C93167433D19CD992F9AB7828CF29546D3D5E849

Скачать .torrent

Скачать

12 KB

Статус: проверено
Скачан: 0 раз
Размер: 140 MB
terms.php
[Профиль] [ЛС]
Показать сообщения:    
Ответить на тему

Текущее время: 18-Окт 23:17

Часовой пояс: UTC + 3



Вы не можете начинать темы
Вы не можете отвечать на сообщения
Вы не можете редактировать свои сообщения
Вы не можете удалять свои сообщения
Вы не можете голосовать в опросах
Вы не можете прикреплять файлы к сообщениям
Вы можете скачивать файлы