Охотники на ведьм / Hansel & Gretel: Witch Hunters (2013) [1080p] HDTVRip [Трейлер]

Ответить на тему
Статистика раздачи
Размер:  193 MB   |    Зарегистрирован:  4 года 9 месяцев   |    Скачан:  0 раз

Полного источника не было: 4 года 9 месяцев

 
     
 
 
Автор Сообщение

Philosoph ®

Пол: Не указан

Стаж: 5 лет 7 месяцев

Сообщений: 1269

Создавать темы 20-Янв-2013 19:13

[Цитировать]

-Охотники на ведьм / Hansel & Gretel: Witch Hunters- -Русское название: Охотники на ведьм
Оригинальное название: Hansel & Gretel: Witch Hunters
Год выпуска: 2013
Производство: Германия, США / Metro-Goldwyn-Mayer (MGM), Paramount Pictures
Жанр: ужасы, боевик, комедия
Перевод: Профессиональный (полное дублирование)-Дата мировой премьеры:: 11 января 2013
Дата российской премьеры: 10 января 2013, «Централ Партнершип»-Режиссер: Томми Виркола
Актеры: Джереми Реннер, Джемма Артертон, Фамке Янссен, Петер Стормаре, Томас Манн, Зои Белл, Ингрид Болсай Бердал, Джуди Нортон, Дерек Мирс, Моник Гэндертон-Описание фильма:
По сюжету знаменитой сказки, Ганс и Грета оказываются в лесу, куда их заводит отец, чтобы избавиться от детей по требованию мачехи. Брат и сестра попадают в ловушку ведьмы, чей домик построен из сахара хлебобулочных изделий. Ведьма намерена съесть детей, но тем удаётся убить её, забрать драгоценности и сбежать.
После того случая в пряничном домике проходит 15 лет. Ганс и Грета вырастают и становятся охотниками за ведьмами- -Продолжительность: 00:02:10
Качество видео: HDTVRip-Видеокодек: MPEG-4 AVC/H.264
Битрейт видео: ~12,0 Мбит/сек
Размер кадра: 1920x1080
Аудиокодек: AC3 2.0
Битрейт аудио: 320 Kbps
MediaInfo:
Общее
Полное имя                              : E:\ТРЕЙЛЕРЫ\Hansel-Gretel-Witch-Hunters-dub_trl.mp4
Формат                                  : MPEG-4
Профиль формата                          : Base Media
Идентификатор кодека                    : isom
Размер файла                            : 193 Мбайт
Продолжительность                        : 2 м. 10 с.
Общий поток                              : 12,4 Мбит/сек
Программа кодирования                    : Lavf53.18.0
Видео
Идентификатор                            : 1
Формат                                  : AVC
Формат/Информация                        : Advanced Video Codec
Профиль формата                          : [url=mailto:High@L4.0]High@L4.0[/url]
Параметр CABAC формата                  : Да
Параметр ReFrames формата                : 4 кадра
Идентификатор кодека                    : avc1
Идентификатор кодека/Информация          : Advanced Video Coding
Продолжительность                        : 2 м. 9 с.
Битрейт                                  : 12,0 Мбит/сек
Ширина                                  : 1920 пикселей
Высота                                  : 1080 пикселей
Соотношение сторон                      : 16:9
Режим частоты кадров                    : Постоянный
Частота кадров                          : 29,970 кадров/сек
Цветовое пространство                    : YUV
Субдискретизация насыщенности            : 4:2:0
Битовая глубина                          : 8 бит
Тип развёртки                            : Прогрессивная
Бит/(Пиксели*Кадры)                      : 0.193
Размер потока                            : 188 Мбайт (97%)
Библиотека кодирования                  : x264 core 119
Настройки программы                      : cabac=1 / ref=1 / deblock=1:0:0 / analyse=0x3:0x3 / me=dia / subme=1 / psy=1 / psy_rd=1.00:0.00 / mixed_ref=0 / me_range=16 / chroma_me=1 / trellis=0 / 8x8dct=1 / cqm=0 / deadzone=21,11 / fast_pskip=1 / chroma_qp_offset=0 / threads=4 / sliced_threads=0 / nr=0 / decimate=1 / interlaced=0 / bluray_compat=0 / constrained_intra=0 / bframes=3 / b_pyramid=2 / b_adapt=1 / b_bias=0 / direct=1 / weightb=1 / open_gop=0 / weightp=1 / keyint=250 / keyint_min=25 / scenecut=40 / intra_refresh=0 / rc=abr / mbtree=0 / bitrate=12000 / ratetol=1.0 / qcomp=0.60 / qpmin=0 / qpmax=69 / qpstep=4 / ip_ratio=1.40 / pb_ratio=1.30 / aq=1:1.00
Язык                                    : English
Аудио
Идентификатор                            : 2
Формат                                  : AC-3
Формат/Информация                        : Audio Coding 3
Расширение режима                        : CM (complete main)
Параметр Endianness формата              : Big
Идентификатор кодека                    : ac-3
Продолжительность                        : 2 м. 10 с.
Вид битрейта                            : Постоянный
Битрейт                                  : 320 Кбит/сек
Каналы                                  : 2 канала
Расположение каналов                    : Front: L R
Частота                                  : 48,0 КГц
Битовая глубина                          : 16 бит
Метод сжатия                            : С потерями
Задержка видео                          : -200 мс.
Размер потока                            : 4,96 Мбайт (3%)
Язык                                    : English
Скриншоты:- -Время раздачи: 24/7
до 3x скачавших..
[reactorr.org].t18037.torrent
Торрент: Зарегистрирован [ 20-01-2013 19:13 ] · 1DB01D3D8093EABEBF56389BCA8E0161CA56BA64

Скачать .torrent

Скачать

16 KB

Статус: проверено
Скачан: 0 раз
Размер: 193 MB
terms.php
[Профиль] [ЛС]
Показать сообщения:    
Ответить на тему

Текущее время: 24-Окт 14:17

Часовой пояс: UTC + 3



Вы не можете начинать темы
Вы не можете отвечать на сообщения
Вы не можете редактировать свои сообщения
Вы не можете удалять свои сообщения
Вы не можете голосовать в опросах
Вы не можете прикреплять файлы к сообщениям
Вы можете скачивать файлы