Ёлки 3 (2013) [1080p] HDTVRip [Тизер]

Ответить на тему
Статистика раздачи
Размер:  90 MB   |    Зарегистрирован:  4 года 3 месяца   |    Скачан:  0 раз

Полного источника не было: 4 года 2 месяца

 
     
 
 
Автор Сообщение

Philosoph ®

Пол: Не указан

Стаж: 5 лет 1 месяц

Сообщений: 1269

Создавать темы 20-Янв-2013 19:18

[Цитировать]

-Ёлки 3- -Оригинальное название: Ёлки 3
Год выпуска: 2013
Производство: Россия
Жанр: комедия, семейный
Язык: Русский-Дата российской премьеры: 21 декабря 2013, «Bazelevs Distribution»
Дата выхода DVD/Blu Ray: N/A-Режиссер: Тимур Бекмамбетов, Ива Стромилова
Актеры: Сергей Светлаков, Иван Ургант, Вера Брежнева, Сергей Безруков, Владимир Меньшов, Гоша Куценко, Александр Головин, Виктор Вержбицкий, Алексей Петренко, Петр Федоров-Описание фильма:
Третья история невероятного сплетений судеб, которые случаются под Новый год.- -Продолжительность: 00:01:26
Качество видео: HDTVRip-Видеокодек: MPEG-4 AVC/H.264
Битрейт видео: ~8 582 Kbps
Размер кадра: 1920x816
Аудиокодек: AAC 2.0
Битрейт аудио: 126 Kbps (VBR)
MediaInfo:
General
Complete name                            : E:\Yolki-3-tizer.mp4
Format                                   : MPEG-4
Format profile                           : QuickTime
Codec ID                                 : qt
File size                                : 90.1 MiB
Duration                                 : 1mn 26s
Overall bit rate mode                    : Variable
Overall bit rate                         : 8 707 Kbps
Movie name/More                          : Encoded by
Encoded date                             : UTC 2012-12-12 20:00:00
Tagged date                              : UTC 2012-12-12 20:00:00
Writing application                      : Lavf53.10.0
Video
ID                                       : 1
Format                                   : AVC
Format/Info                              : Advanced Video Codec
Format profile                           : [url=mailto:High@L4.0]High@L4.0[/url]
Format settings, CABAC                   : Yes
Format settings, ReFrames                : 4 frames
Codec ID                                 : avc1
Codec ID/Info                            : Advanced Video Coding
Duration                                 : 1mn 26s
Duration_LastFrame                       : -40ms
Bit rate                                 : 8 582 Kbps
Nominal bit rate                         : 8 000 Kbps
Width                                    : 1 920 pixels
Height                                   : 816 pixels
Display aspect ratio                     : 2.35:1
Frame rate mode                          : Constant
Frame rate                               : 24.000 fps
Color space                              : YUV
Chroma subsampling                       : 4:2:0
Bit depth                                : 8 bits
Scan type                                : Progressive
Bits/(Pixel*Frame)                       : 0.228
Stream size                              : 88.7 MiB (98%)
Writing library                          : x264 core 115
Encoding settings                        : cabac=1 / ref=3 / deblock=1:0:0 / analyse=0x3:0x113 / me=hex / subme=7 / psy=1 / psy_rd=1.00:0.00 / mixed_ref=1 / me_range=16 / chroma_me=1 / trellis=1 / 8x8dct=1 / cqm=0 / deadzone=21,11 / fast_pskip=1 / chroma_qp_offset=-2 / threads=1 / sliced_threads=0 / nr=0 / decimate=1 / interlaced=0 / bluray_compat=0 / constrained_intra=0 / bframes=3 / b_pyramid=2 / b_adapt=1 / b_bias=0 / direct=1 / weightb=1 / open_gop=0 / weightp=2 / keyint=300 / keyint_min=24 / scenecut=50 / intra_refresh=0 / rc_lookahead=40 / rc=2pass / mbtree=1 / bitrate=8000 / ratetol=60.0 / qcomp=0.60 / qpmin=0 / qpmax=69 / qpstep=4 / cplxblur=20.0 / qblur=0.5 / ip_ratio=1.40 / aq=1:1.00
Language                                 : English
Encoded date                             : UTC 2012-12-12 20:00:00
Tagged date                              : UTC 2012-12-12 20:00:00
Audio
ID                                       : 2
Format                                   : AAC
Format/Info                              : Advanced Audio Codec
Format profile                           : LC
Codec ID                                 : 40
Duration                                 : 1mn 26s
Bit rate mode                            : Variable
Bit rate                                 : 126 Kbps
Maximum bit rate                         : 128 Kbps
Channel(s)                               : 2 channels
Channel positions                        : Front: L R
Sampling rate                            : 48.0 KHz
Compression mode                         : Lossy
Delay relative to video                  : 82ms
Stream size                              : 1.31 MiB (1%)
Language                                 : English
Encoded date                             : UTC 2012-12-12 20:00:00
Tagged date                              : UTC 2012-12-12 20:00:00
Скриншоты:- -
Время раздачи: 24/7 до 3х скачавших, дальше по мере возможности...
Постер и оформление Long__Boy®
[reactorr.org].t18041.torrent
Торрент: Зарегистрирован [ 20-01-2013 19:18 ] · 3B3D5EE85712FDF4BFE08F217E98A77A567EF9D6

Скачать .torrent

Скачать

15 KB

Статус: проверено
Скачан: 0 раз
Размер: 90 MB
terms.php
[Профиль] [ЛС]
Показать сообщения:    
Ответить на тему

Текущее время: 27-Апр 18:14

Часовой пояс: UTC + 3



Вы не можете начинать темы
Вы не можете отвечать на сообщения
Вы не можете редактировать свои сообщения
Вы не можете удалять свои сообщения
Вы не можете голосовать в опросах
Вы не можете прикреплять файлы к сообщениям
Вы можете скачивать файлы