Последний уик-энд (Павел Санаев) [2005 г., Триллер, DVDRip]

Ответить на тему
Статистика раздачи
Размер:  1,46 GB   |    Зарегистрирован:  4 года 4 месяца   |    Скачан:  1 раз
Сидов:  28  [  0 KB/s  ]   Подробная статистика пиров
 
     
 
 
Автор Сообщение

Жнец ®

Пол: Женский

Стаж: 5 лет

Сообщений: 5664

Создавать темы 09-Фев-2013 13:56

[Цитировать]

Последний уик-энд -Год выпуска: 2005
Жанр: Триллер
Продолжительность: 87 мин
Режиссер: Павел Санаев
В ролях: Иван Стебунов, Татьяна Арнтгольц, Артем Семакин, Илья Соколовский, Гоша Куценко-Описание: Владалец охранной фирмы, в прошлом криминальный авторитет го кличке Бешеный, решил отправить своего любимого младшего брата Мишу на учебу в Америку, а чтобы брат не скучал в далекой стране, готов даже отправить вместе с ним его лучшего друга Кирилла. Пацаны устраивают прощальную вечеринку для друзей, на которой Мишка в результате несчастного случая гибнет. Оказавшись в одной компании с трупом, испугавшись суровой расправы Бешеного, друзья принимают решение избавиться от тела. Рецепт предлагает бывший десантник Глеб -труп надо обложить покрышками и сжечь далеко за городом. И вот тело друга уложено в багажник вместе со старыми шинами, и Кирилл садится за руль старого Кадиллака, чтобы тронуться в путь. Если бы он знал, что его малодушие запустило в действие рок - беспощадный механизм, готовый уничтожить их всех. Это бып их последний уик-энд...
Качество: DVDRip
Формат: AVI
Видео кодек: XviD
Аудио кодек: MP3
Видео: 720x432 (1.67:1), 25 fps, XviD build 47 ~2184 kbps avg, 0.28 bit/pixel
Аудио: 48 kHz, AC3 Dolby Digital, 2/0 (L,R) ch, ~224.00 kbps avg
сэмпл - http://multi-up.com/829005
Общее
Полное имя : D:\Архив\ФИЛЬМЫ\Posledniy_Weekend_by_Scarabey.avi
Формат : AVI
Формат/Информация : Audio Video Interleave
Размер файла : 1,46 Гбайт
Продолжительность : 1 ч. 26 м.
Общий поток : 2418 Кбит/сек
Программа кодирования : VirtualDubMod 1.5.10.2 (build 2540/release)
Библиотека кодирования : VirtualDubMod build 2540/release
Видео
Идентификатор : 0
Формат : MPEG-4 Visual
Профиль формата : Advanced Simple@L5
Параметр BVOP формата : 1
Параметр QPel формата : Нет
Параметр GMC формата : Без точки перехода
Параметр матрицы формата : Default (MPEG)
Идентификатор кодека : XVID
Идентификатор кодека/Подсказка : XviD
Продолжительность : 1 ч. 26 м.
Битрейт : 2185 Кбит/сек
Ширина : 720 пикселей
Высота : 432 пикселя
Соотношение сторон : 1,667
Частота кадров : 25,000 кадров/сек
Цветовое пространство : YUV
Субдискретизация насыщенности : 4:2:0
Битовая глубина : 8 бит
Тип развёртки : Прогрессивная
Метод сжатия : С потерями
Бит/(Пиксели*Кадры) : 0.281
Размер потока : 1,32 Гбайт (90%)
Библиотека кодирования : XviD 1.2.0.dev47 (UTC 2006-11-01)
Аудио
Идентификатор : 1
Формат : AC-3
Формат/Информация : Audio Coding 3
Расширение режима : CM (complete main)
Идентификатор кодека : 2000
Продолжительность : 1 ч. 26 м.
Вид битрейта : Постоянный
Битрейт : 224 Кбит/сек
Каналы : 2 канала
Расположение каналов : Front: L R
Частота : 48,0 КГц
Битовая глубина : 16 бит
Метод сжатия : С потерями
Размер потока : 139 Мбайт (9%)
Выравнивание : Разделение по промежуткам
Продолжительность промежутка : 40 мс. (1,00 видеокадр)
Время предзагрузки промежутка : 500 мс.
Скриншоты






[reactorr.org].t18424.torrent
Торрент: Зарегистрирован [ 09-02-2013 13:56 ] · C2C00505936B79F385199D9DECBD45565A32C835

Скачать .torrent

Скачать

15 KB

Статус: проверено
Скачан: 1 раз
Размер: 1,46 GB
terms.php


Последний раз редактировалось: Жнец (09-02-2013 14:31), всего редактировалось 1 раз
[Профиль] [ЛС]

surok

Пол: Не указан

Создавать темы 09-Фев-2013 14:34 (спустя 38 минут)

[Цитировать]

Спасибо.
 

Шрайк

Пол: Мужской

Стаж: 4 года 9 месяцев

Сообщений: 593

Создавать темы 09-Фев-2013 16:59 (спустя 2 часа 24 минуты)

[Цитировать]

Пытаясь убежать от судьбы, человек к ней и стремится.
[Профиль] [ЛС]

Жнец ®

Пол: Женский

Стаж: 5 лет

Сообщений: 5664

Создавать темы 10-Фев-2013 07:02 (спустя 14 часов)

[Цитировать]

Мдаааа 8 лет назад этот фильм мне показалсь стоящим)))
[Профиль] [ЛС]
Показать сообщения:    
Ответить на тему

Текущее время: 23-Июн 20:21

Часовой пояс: UTC + 3



Вы не можете начинать темы
Вы не можете отвечать на сообщения
Вы не можете редактировать свои сообщения
Вы не можете удалять свои сообщения
Вы не можете голосовать в опросах
Вы не можете прикреплять файлы к сообщениям
Вы можете скачивать файлы