Хроника "Ада" (Михаил Шевчук) [2006 г., боевик, военный, DVDRip]

Ответить на тему
Статистика раздачи
Размер:  1.46 GB   |    Зарегистрирован:  3 года 8 месяцев   |    Скачан:  0 раз
Сидов:  3  [  0 KB/s  ]   Подробная статистика пиров
 
     
 
 
Автор
Сообщение

-Хроника "Ада"-- Производство: Россия, ООО "Максимус"
Режиссер: Михаил Шевчук
Жанр: боевик, военный
Год выпуска: 2006 г.
Продолжительность: 01:40:43
Дата выхода DVD: 14 января 2010, «Азимут»
В ролях: Александр Соловьев мл., Владислав Демин, Гейдар Садыхов, Глафира Тарханова, Руслан Гад, Юрий Сысоев, Алексей Фаддеев, Виктор Бунаков, Виталий Зикора
-Описание: 1943 год. Советское командование отправляет в тыл врага разведгруппу во главе с капитаном Тенегиным. Их задача – уничтожить секретную лабораторию, где фашисты проводят опыты над военнопленными с целью создания препарата, способного во много раз увеличить силу и выносливость человека. Но на пути бесстрашного отряда стоят солдаты рейха, уже испытавшие на себе действие препарата…-КиноПоиск
Качество видео: DVDRip
Контейнер: AVI
Видео кодек: XviD
Аудио кодек: AC3
Видео: 704x384 (1.83:1), 25 fps, XviD build 73 ~1690 kbps avg, 0.25 bit/pixel
Аудио: 48 kHz, AC3 Dolby Digital, 3/2 (L,C,R,l,r) + LFE ch, ~384 kbps
Cубтитры: отсутствуют

Media Info

Общее
Полное имя : D:\Архив\ФИЛЬМЫ\Hronika_«Ada»_2006_DVDRip.avi
Формат : AVI
Формат/Информация : Audio Video Interleave
Размер файла : 1,46 Гбайт
Продолжительность : 1 ч. 40 м.
Общий поток : 2084 Кбит/сек
Программа кодирования : VirtualDubMod 1.5.10.3 | www.virtualdub-fr.org || (build 2550/release)
Библиотека кодирования : VirtualDubMod build 2550/release
Видео
Идентификатор : 0
Формат : MPEG-4 Visual
Профиль формата : Advanced Simple@L5
Параметр BVOP формата : 1
Параметр QPel формата : Нет
Параметр GMC формата : Без точки перехода
Параметр матрицы формата : Выборочная
Идентификатор кодека : XVID
Идентификатор кодека/Подсказка : XviD
Продолжительность : 1 ч. 40 м.
Битрейт : 1690 Кбит/сек
Ширина : 704 пикселя
Высота : 384 пикселя
Соотношение сторон : 1,85:1
Частота кадров : 25,000 кадров/сек
Цветовое пространство : YUV
Субдискретизация насыщенности : 4:2:0
Битовая глубина : 8 бит
Тип развёртки : Прогрессивная
Метод сжатия : С потерями
Бит/(Пиксели*Кадры) : 0.250
Размер потока : 1,18 Гбайт (81%)
Библиотека кодирования : XviD 73
Аудио
Идентификатор : 1
Формат : AC-3
Формат/Информация : Audio Coding 3
Расширение режима : CM (complete main)
Параметр Endianness формата : Big
Идентификатор кодека : 2000
Продолжительность : 1 ч. 40 м.
Вид битрейта : Постоянный
Битрейт : 384 Кбит/сек
Каналы : 6 каналов
Расположение каналов : Front: L C R, Side: L R, LFE
Частота : 48,0 КГц
Битовая глубина : 16 бит
Метод сжатия : С потерями
Размер потока : 275 Мбайт (18%)
Выравнивание : Разделение по промежуткам
Продолжительность промежутка : 40 мс. (1,00 видеокадр)
Время предзагрузки промежутка : 500 мс.

Скриншот c названием фильма

Скриншоты

 
Показать сообщения:    
Ответить на тему