Брестская крепость (Александр Котт) [2010 г., Военная драма, DVDRip]

Ответить на тему
Статистика раздачи
Размер:  2,06 GB   |    Зарегистрирован:  4 года 4 месяца   |    Скачан:  0 раз

Полного источника не было: 4 года 4 месяца

 
     
 
 
Автор Сообщение

surok ®

Пол: Не указан

Создавать темы 09-Май-2013 11:21

[Цитировать]

-Брестская крепость-- Год выпуска: 2010
Жанр: Военная драма
Продолжительность: 02:13:02
Режиссер: Александр Котт-В ролях: Евгений Цыганов, Андрей Мерзликин, Павел Деревянко, Александр Коршунов, Юрий Анпилогов, Кирилл Болтаев, Анатолий Кот, Илья Мозговой, Яна Есипович, Дмитрий Куличков-Описание: Фильм рассказывает о героической обороне Брестской крепости, которая приняла на себя первый удар немецко-фашистских захватчиков 22 июня 1941 года. С документальной точностью описываются события, происходившие в первые дни обороны. Фильм рассказывает о главных трёх очагах сопротивления, возглавляемых командиром полка Петром Гавриловым, комиссаром Ефимом Фоминым и начальником 9-й погранзаставы Андреем Кижеватовым.-Источник/Качество: DVDRip
Формат: AVI
Видео кодек: XviD
Аудио кодек: AC3
Видео: 720x304 (2.37:1), 25 fps, XviD build 47 ~1760 kbps avg, 0.32 bit/pixel
Аудио: 48 kHz, AC3 Dolby Digital, 3/2 (L,C,R,l,r) + LFE ch, ~448 kbps
MediaInfo
Формат : AVI
Формат/Информация : Audio Video Interleave
Профиль формата : OpenDML
Размер файла : 2,06 Гбайт
Продолжительность : 2 ч. 13 м.
Общий поток : 2214 Кбит/сек
Программа кодирования : VirtualDubMod 1.5.10.2 (build 2540/release)
Библиотека кодирования : VirtualDubMod build 2540/release
Видео
Идентификатор : 0
Формат : MPEG-4 Visual
Профиль формата : Advanced Simple@L5
Параметр BVOP формата : 3
Параметр QPel формата : Нет
Параметр GMC формата : Без точки перехода
Параметр матрицы формата : Default (H.263)
Идентификатор кодека : XVID
Идентификатор кодека/Подсказка : XviD
Продолжительность : 2 ч. 13 м.
Битрейт : 1755 Кбит/сек
Ширина : 720 пикселей
Высота : 304 пикселя
Соотношение сторон : 2,35:1
Частота кадров : 25,000 кадров/сек
Цветовое пространство : YUV
Субдискретизация насыщенности : 4:2:0
Битовая глубина : 8 бит
Тип развёртки : Прогрессивная
Метод сжатия : С потерями
Бит/(Пиксели*Кадры) : 0.321
Размер потока : 1,63 Гбайт (79%)
Библиотека кодирования : XviD 1.2.0.dev47 (UTC 2006-11-01)
Аудио
Идентификатор : 1
Формат : AC-3
Формат/Информация : Audio Coding 3
Расширение режима : CM (complete main)
Идентификатор кодека : 2000
Продолжительность : 2 ч. 12 м.
Вид битрейта : Постоянный
Битрейт : 448 Кбит/сек
Каналы : 6 каналов
Расположение каналов : Front: L C R, Side: L R, LFE
Частота : 48,0 КГц
Битовая глубина : 16 бит
Метод сжатия : С потерями
Размер потока : 425 Мбайт (20%)
Выравнивание : Разделение по промежуткам
Продолжительность промежутка : 40 мс. (1,00 видеокадр)
Время предзагрузки промежутка : 500 мс.
Скриншоты--
[reactorr.org].t24021.torrent
Торрент: Зарегистрирован [ 09-05-2013 11:21 ] · EF52049E300E2E46278470905946B62B6DB3F254

Скачать .torrent

Скачать

11 KB

Статус: проверено
Скачан: 0 раз
Размер: 2,06 GB
terms.php
 
Показать сообщения:    
Ответить на тему

Текущее время: 23-Сен 05:07

Часовой пояс: UTC + 3



Вы не можете начинать темы
Вы не можете отвечать на сообщения
Вы не можете редактировать свои сообщения
Вы не можете удалять свои сообщения
Вы не можете голосовать в опросах
Вы не можете прикреплять файлы к сообщениям
Вы можете скачивать файлы