Чаклун и Румба (Вторая ошибка сапера) (Андрей Голубев) [2007 г., Драма, военный, DVDRip]

Ответить на тему
Статистика раздачи
Размер:  1,37 GB   |    Зарегистрирован:  4 года 5 месяцев   |    Скачан:  1 раз
Сидов:  2  [  0 KB/s  ]   Личеров:  4  [  0 KB/s  ]   Подробная статистика пиров
 
     
 
 
Автор Сообщение

surok ®

Пол: Не указан

Создавать темы 10-Май-2013 12:02

[Цитировать]

-Чаклун и Румба-- Производство: Беларусьфильм
Режиссер: Андрей Голубев
Жанр: Драма, военный
Год выпуска: 2007 г.
Продолжительность: 01:18:56
Дата выхода DVD: 16 апреля 2009, «Русское счастье»
В ролях: Андрей Федорцов, Ольга Рептух, Алексей Шедько, Юлия Полубинская, Александр Ткаченок, Андрей Голубев, Николай Чиндяйкин, Алла Пролич, Зоя Белохвостик, Владимир Мищанчук-Описание: В центре лирико-драматического повествования — фронтовая судьба одного из миллионов простых солдат Великой Отечественной — сапера Федора Чаклуна и его четвероногого помощника — специально обученной овчарки по кличке Румба. Сапер на войне ошибается всего один раз. Сержант Федор Чаклун отлично нес службу, очищая фронтовые дороги от фашистских мин, пока не совершил свою первую ошибку — влюбился по неосторожности в регулировщицу Светлану. Когда по вине девушки погибли люди, Чаклун взял вину на себя…Трибунал, разжалование, штрафная рота… Он выполнял любой приказ, даже когда понимал, что идет на верную смерть. А рядом всегда была преданная Румба, бесстрашно следовавшая за ним в самое пекло сражений. И на поле боя, и в госпитале после ранения Чаклун мечтал вернуться к своей возлюбленной, встреченной на одном из перекрестков войны.-КиноПоиск
Качество видео: DVDRip
Контейнер: AVI
Видео кодек: XviD
Аудио кодек: AC3
Видео: 704x384 (1.83:1), 25 fps, XviD build 50 ~2020 kbps avg, 0.30 bit/pixel
Аудио: 48 kHz, AC3 Dolby Digital, 3/2 (L,C,R,l,r) + LFE ch, ~448 kbps
Cубтитры: отсутствуют
Media Info
Общее
Полное имя : D:\Chaklun.i.Rumba.2007.XviD.DVDRip.avi
Формат : AVI
Формат/Информация : Audio Video Interleave
Размер файла : 1,37 Гбайт
Продолжительность : 1 ч. 18 м.
Общий поток : 2478 Кбит/сек
Программа кодирования : Nandub v1.0rc2
Библиотека кодирования : Nandub build 1852/release
Видео
Идентификатор : 0
Формат : MPEG-4 Visual
Профиль формата : Advanced Simple@L5
Параметр BVOP формата : 2
Параметр QPel формата : Нет
Параметр GMC формата : Без точки перехода
Параметр матрицы формата : Default (MPEG)
Идентификатор кодека : XVID
Идентификатор кодека/Подсказка : XviD
Продолжительность : 1 ч. 18 м.
Битрейт : 2021 Кбит/сек
Ширина : 704 пикселя
Высота : 384 пикселя
Соотношение сторон : 1,85:1
Частота кадров : 25,000 кадров/сек
Цветовое пространство : YUV
Субдискретизация насыщенности : 4:2:0
Битовая глубина : 8 бит
Тип развёртки : Прогрессивная
Метод сжатия : С потерями
Бит/(Пиксели*Кадры) : 0.299
Размер потока : 1,11 Гбайт (82%)
Библиотека кодирования : XviD 1.2.1 (UTC 2008-12-04)
Аудио
Идентификатор : 1
Формат : AC-3
Формат/Информация : Audio Coding 3
Расширение режима : CM (complete main)
Параметр Endianness формата : Big
Идентификатор кодека : 2000
Продолжительность : 1 ч. 18 м.
Вид битрейта : Постоянный
Битрейт : 448 Кбит/сек
Каналы : 6 каналов
Расположение каналов : Front: L C R, Side: L R, LFE
Частота : 48,0 КГц
Битовая глубина : 16 бит
Метод сжатия : С потерями
Задержка видео : 24 мс.
Размер потока : 253 Мбайт (18%)
Выравнивание : Разделение по промежуткам
Продолжительность промежутка : 40 мс. (1,00 видеокадр)
Время предзагрузки промежутка : 500 мс.
Скриншот c названием фильма
Скриншоты
[reactorr.org].t24353.torrent
Торрент: Зарегистрирован [ 10-05-2013 12:02 ] · 7B15DD11600D755B03AF46F8BFE63CE181C935DF

Скачать .torrent

Скачать

14 KB

Статус: проверено
Скачан: 1 раз
Размер: 1,37 GB
terms.php
 
Показать сообщения:    
Ответить на тему

Текущее время: 22-Окт 09:38

Часовой пояс: UTC + 3



Вы не можете начинать темы
Вы не можете отвечать на сообщения
Вы не можете редактировать свои сообщения
Вы не можете удалять свои сообщения
Вы не можете голосовать в опросах
Вы не можете прикреплять файлы к сообщениям
Вы можете скачивать файлы