Фонограмма страсти (2009) DVB

Ответить на тему
Статистика раздачи
Размер:  2,35 GB   |    Зарегистрирован:  4 года   |    Скачан:  0 раз

Полного источника не было: Никогда

 
     
 
 
Автор Сообщение

surok ®

Пол: Не указан

Создавать темы 24-Май-2013 10:16

[Цитировать]

Фонограмма страсти-- Жанр: Tриллер, мелодрама
Год выпуска: 2009
Страна: Россия
Киностудия: «МЛ-студия» по заказу компании «Централ Партнершип»
Продолжительность: 01:32:05
Режиссёр: Николай Лебедев
В ролях: Фабио Фулко, Елена Николаева (II), Сергей Гармаш, Нина Усатова, Светлана Тома, Алексей Комашко, Анатолий Белый, Александр Бухаров, Максим Воронков, Алексей Злобин, Алексей Королев, Ольга Литвинова, Николай Мачульский, Александр Новин, Александр Пахомов, Сергей Угрюмов, Сергей Брауде.
Описание: Пронзительная история любви в атмосфере смертельной опасности. Девушка, работающая в службе прослушивания, влюбляется в порученного ей «клиента».

Сэмпл
Качество видео: DVB
Формат видео: MPEG-PS
Видео: MPEG2 Video, 720x576 (4:3), 25 fps, 3384 Kbps, 0.33 bit/pixel
Аудио: MPEG Audio, 48 kHz, 2 ch, 192 kbps
MediaInfo
General
Complete name : D:Фонограмма страсти_2009_DVB.mpg
Format : MPEG-PS
File size : 2.35 GiB
Duration : 1h 32mn
Overall bit rate mode : Variable
Overall bit rate : 3 648 Kbps
Video
ID : 224 (0xE0)
Format : MPEG Video
Format version : Version 2
Format profile : Main@Main
Format settings, BVOP : Yes
Format settings, Matrix : Custom
Format settings, GOP : M=3, N=12
Duration : 1h 32mn
Bit rate mode : Variable
Bit rate : 3 384 Kbps
Maximum bit rate : 15.0 Mbps
Width : 720 pixels
Height : 576 pixels
Display aspect ratio : 4:3
Frame rate : 25.000 fps
Standard : PAL
Color space : YUV
Chroma subsampling : 4:2:0
Bit depth : 8 bits
Scan type : Interlaced
Scan order : Top Field First
Compression mode : Lossy
Bits/(Pixel*Frame) : 0.326
Time code of first frame : 00:00:00:00
Time code source : Group of pictures header
Stream size : 2.18 GiB (93%)
Audio
ID : 192 (0xC0)
Format : MPEG Audio
Format version : Version 1
Format profile : Layer 2
Duration : 1h 32mn
Bit rate mode : Constant
Bit rate : 192 Kbps
Channel(s) : 2 channels
Sampling rate : 48.0 KHz
Compression mode : Lossy
Stream size : 126 MiB (5%)
Bitrate Viewer
Скриншот c названием фильма
Скриншоты
[reactorr.org].t27536.torrent
Торрент: Зарегистрирован [ 24-05-2013 10:16 ] · 441270D66C2B59F44681030D5F93AA8B7F10A248

Скачать .torrent

Скачать

12 KB

Статус: проверено
Скачан: 0 раз
Размер: 2,35 GB
terms.php
 
Показать сообщения:    
Ответить на тему

Текущее время: 23-Июн 23:37

Часовой пояс: UTC + 3



Вы не можете начинать темы
Вы не можете отвечать на сообщения
Вы не можете редактировать свои сообщения
Вы не можете удалять свои сообщения
Вы не можете голосовать в опросах
Вы не можете прикреплять файлы к сообщениям
Вы можете скачивать файлы