Копейка (Иван Дыховичный) [2002, комедия, DVDRip-AVC]

Ответить на тему
Статистика раздачи
Размер:  1,45 GB   |    Зарегистрирован:  3 года 11 месяцев   |    Скачан:  0 раз

Полного источника не было: 3 года 10 месяцев

 
     
 
 
Автор Сообщение

surok ®

Пол: Не указан

Создавать темы 27-Май-2013 16:29

[Цитировать]

КопейкаСлоган: «Культовая машина в круговерти страстей»
Год выпуска: 2002
Страна: Россия
Жанр: комедия
Продолжительность: 01:57:31
Cубтитры: нет
Режиссер: Иван Дыховичный
Сценарий: Иван Дыховичный, Владимир Сорокин
Продюсер: Иван Дыховичный, Эрик Вайсберг, Виталий Южилин
Оператор: Александр Ильховский, Вадим Юсов
Композитор: Антон Батагов
В ролях: Алёна Бабенко, Ольга Дыховичная, Олег Ковалов, Андрей Краско (рассказчик, один из владелецев «копейки»), Валерий Кудряшов, Александра Куликова, Роман Мадянов, Сергей Мазаев, Сергей Шнуров (сын олигарха), Владимир Сорокин, Юрий Цурило, Игорь Арташонов (Высоцкий)-Мировая премьера: 10 января 2003-Описание: Лихие приключения ВАЗ-2101, «Жигули» первой модели, легендарной «копейки», которая тридцать лет назад была настоящей «богиней» для миллионов советских людей. «Вечная и неразменная», покалеченная, измордованная и реанимированная «золотыми руками» мастера Бубуки, она путешествует от члена политбюро к проститутке, от черноморского каталы к простому гэбэшнику, от предприимчивого пенсионера к физику-диссиденту-лауреату Госпремии из новосибирского Академгородка.
Непотопляемый и несгораемый народный автомобиль с ветерком и лязгом катится по дорогам, временам и судьбам, превращается в дом и корабль, в кровать и гроб, очаровывает и вызывает ужас, приносит счастье и губит…-Рейтинг
kinopoisk.ru: 6.855 (704)
imdb.com: 6.30 (172)-Качество: DVDRip
Исходник: DVD9
Формат: Matroska
Видеокодек: AVC
Аудиокодек: AC3
Видео: MPEG-4 AVC Video / 1379 kbps / 720x460 => 768x460 / 25 fps / 1.669:1 / 0,166 bpp / High Profile 3.2
Аудио: Russian / Dolby Digital Audio / 5.1 / 48 kHz / 384 kbps-
Скриншоты
-
MI
General
Unique ID : 229237599594354707314985034005938010055 (0xAC758E453A2403E6AE46BB9F762577C7)
Complete name : E:\Skazhutin\Копейка.mkv
Format : Matroska
File size : 1.45 GiB
Duration : 1h 57mn
Overall bit rate : 1 765 Kbps
Encoded date : UTC 2011-05-24 06:33:03
Writing application : mkvmerge v4.7.0 ('Just Like You Imagined') built on Apr 21 2011 01:13:14
Writing library : libebml v1.2.0 + libmatroska v1.1.0
Video
ID : 1
Format : AVC
Format/Info : Advanced Video Codec
Format profile : High@L3.2
Format settings, CABAC : Yes
Format settings, ReFrames : 15 frames
Codec ID : V_MPEG4/ISO/AVC
Duration : 1h 57mn
Bit rate : 1 380 Kbps
Width : 720 pixels
Height : 460 pixels
Display aspect ratio : 1.670
Frame rate : 25.000 fps
Color space : YUV
Chroma subsampling : 4:2:0
Bit depth : 8 bits
Scan type : Progressive
Bits/(Pixel*Frame) : 0.167
Stream size : 1.10 GiB (76%)
Writing library : x264 core 115 r1995 c1e60b9
Encoding settings : cabac=1 / ref=15 / deblock=1:-2:-1 / analyse=0x3:0x133 / me=umh / subme=10 / psy=1 / psy_rd=1.10:0.10 / mixed_ref=1 / me_range=24 / chroma_me=1 / trellis=2 / 8x8dct=1 / cqm=0 / deadzone=21,11 / fast_pskip=0 / chroma_qp_offset=-3 / threads=6 / sliced_threads=0 / nr=0 / decimate=0 / interlaced=0 / bluray_compat=0 / constrained_intra=0 / bframes=11 / b_pyramid=2 / b_adapt=2 / b_bias=0 / direct=3 / weightb=1 / open_gop=0 / weightp=2 / keyint=250 / keyint_min=25 / scenecut=40 / intra_refresh=0 / rc=2pass / mbtree=0 / bitrate=1380 / ratetol=1.0 / qcomp=0.70 / qpmin=0 / qpmax=69 / qpstep=4 / cplxblur=20.0 / qblur=0.5 / ip_ratio=1.40 / pb_ratio=1.30 / aq=1:1.10
Language : Russian
Color primaries : BT.470-6 System B, BT.470-6 System G, BT.601-6 625, BT.1358 625, BT.1700 625 PAL, BT.1700 625 SECAM
Transfer characteristics : BT.470-6 System B, BT.470-6 System G
Matrix coefficients : BT.470-6 System B, BT.470-6 System G, BT.601-6 625, BT.1358 625, BT.1700 625 PAL, BT.1700 625 SECAM, IEC 61966-2-4 601
Audio
ID : 2
Format : AC-3
Format/Info : Audio Coding 3
Mode extension : CM (complete main)
Codec ID : A_AC3
Duration : 1h 57mn
Bit rate mode : Constant
Bit rate : 384 Kbps
Channel(s) : 6 channels
Channel positions : Front: L C R, Side: L R, LFE
Sampling rate : 48.0 KHz
Bit depth : 16 bits
Compression mode : Lossy
Stream size : 323 MiB (22%)
Language : Russian
-
x264 log
Код:
y4m [info]: 720x460p 16:15 @ 25/1 fps (cfr)
x264 [info]: using SAR=16/15
x264 [info]: using cpu capabilities: MMX2 SSE2Fast SSSE3 FastShuffle SSE4.1 Cache64
x264 [info]: profile High, level 3.2
x264 [info]: frame I:980 Avg QP:17.83 size: 38771
x264 [info]: frame P:34489 Avg QP:20.36 size: 15267
x264 [info]: frame B:140811 Avg QP:21.78 size: 4626
x264 [info]: consecutive B-frames: 1.1% 1.2% 7.2% 11.3% 8.5% 64.7% 1.9% 0.7% 1.5% 0.2% 0.4% 1.3%
x264 [info]: mb I I16..4: 6.6% 80.4% 13.0%
x264 [info]: mb P I16..4: 2.9% 18.8% 1.5% P16..4: 44.4% 23.7% 5.1% 0.3% 0.2% skip: 3.2%
x264 [info]: mb B I16..4: 0.5% 1.3% 0.1% B16..8: 37.4% 11.9% 2.9% direct: 6.9% skip:39.1% L0:40.0% L1:44.3% BI:15.7%
x264 [info]: 8x8 transform intra:78.1% inter:66.4%
x264 [info]: direct mvs spatial:98.7% temporal:1.3%
x264 [info]: coded y,uvDC,uvAC intra: 82.4% 84.1% 55.1% inter: 26.0% 23.4% 6.2%
x264 [info]: i16 v,h,dc,p: 75% 9% 4% 13%
x264 [info]: i8 v,h,dc,ddl,ddr,vr,hd,vl,hu: 14% 8% 11% 9% 11% 14% 10% 13% 11%
x264 [info]: i4 v,h,dc,ddl,ddr,vr,hd,vl,hu: 17% 10% 3% 8% 13% 16% 11% 12% 9%
x264 [info]: i8c dc,h,v,p: 37% 24% 22% 17%
x264 [info]: Weighted P-Frames: Y:10.0% UV:5.6%
x264 [info]: ref P L0: 43.2% 11.6% 16.1% 7.2% 5.2% 4.0% 3.2% 2.0% 1.6% 1.4% 1.2% 1.0% 0.9% 0.8% 0.6% 0.1%
x264 [info]: ref B L0: 72.1% 12.0% 5.1% 2.7% 2.0% 1.6% 1.3% 0.8% 0.7% 0.6% 0.5% 0.4% 0.3% 0.1%
x264 [info]: ref B L1: 94.4% 5.6%
x264 [info]: kb/s:1379.55
encoded 176280 frames, 7.29 fps, 1379.55 kb/s
[reactorr.org].t27781.torrent
Торрент: Зарегистрирован [ 27-05-2013 16:30 ] · 5A7C0C197D912B96A6D47166212DC25ED5ADE8FF

Скачать .torrent

Скачать

15 KB

Статус: проверено
Скачан: 0 раз
Размер: 1,45 GB
terms.php
 
Показать сообщения:    
Ответить на тему

Текущее время: 27-Апр 18:01

Часовой пояс: UTC + 3



Вы не можете начинать темы
Вы не можете отвечать на сообщения
Вы не можете редактировать свои сообщения
Вы не можете удалять свои сообщения
Вы не можете голосовать в опросах
Вы не можете прикреплять файлы к сообщениям
Вы можете скачивать файлы