Аврора (Оксана Байрак) [2006 г., Драма, DVDRip]

Ответить на тему
Статистика раздачи
Размер:  1,41 GB   |    Зарегистрирован:  3 года 9 месяцев   |    Скачан:  0 раз

Полного источника не было: 1 год 10 месяцев

 
     
 
 
Автор Сообщение

ge-ka ®

Пол: Не указан

Стаж: 4 года 3 месяца

Сообщений: 18

Создавать темы 04-Июн-2013 00:16

[Цитировать]

Аврора
«Посвящается трагедии на Чернобыльской АЭС 1986 года»- Год выпуска: 2006
Производство: Украина
Жанр: Драма
Продолжительность: 01:47:24
Режиссер: Оксана Байрак
В ролях: Дмитрий Харатьян, Николай Астахов, Эрик Робертс, Анастасия Зюркалова, Анастасия Меськова, Виктор Степанов, Римма Зюбина, Олег Масленников, Анастасия Сердюк, Владимир Горянский, Екатерина Качан, Владимир Герасимов, Алла Масленикова, Сергей Малюга, Виктор Щербаков, Ольга Ряшина
Описание: Аврора — воспитанница детдома на окраине Припяти. Она обожает танцевать и мечтает стать балериной. Во время катастрофы на Чернобыльской атомной электростанции девочка получает огромную дозу облучения. Единственный шанс на выживание — дорогостоящая операция в США.Аврору отправляют в Америку, где в больнице она встречает своего кумира, звезду советского, а затем американского балета, Ника Астахова, переживающего глубокий творческий кризис. Встреча с умирающим ребенком, которой грезит о балетной сцене, помогает артисту изменить свою жизнь.- -Качество: DVDRip (AVC)
Формат: MKV
Видео кодек: MPEG-4 AVC, 1388 Кбит/с, 720x432@1024x432
Аудио кодек: АС3, 6 ch, 448 Кбит/с
MediaInfo
Общее
Уникальный идентификатор                 : 182003737626323114456939354871962406968 (0x88ECA5137AEA7C26938C4F0875BA1038)
Полное имя                               : E:\Фильмы\Avrora.2006.x264.DVDRip.(AVC).mkv
Формат                                   : Matroska
Версия формата                           : Version 1
Размер файла                             : 1,41 Гбайт
Продолжительность                        : 1 ч. 47 м.
Общий поток                              : 1874 Кбит/сек
Дата кодирования                         : UTC 2011-02-05 00:13:06
Программа кодирования                    : mkvmerge v2.5.3 ('Boogie') built on Mar  7 2009 15:00:41
Библиотека кодирования                   : libebml v0.7.7 + libmatroska v0.8.1
Видео
Идентификатор                            : 1
Формат                                   : AVC
Формат/Информация                        : Advanced Video Codec
Профиль формата                          : High@L3.1
Параметр CABAC формата                   : Да
Параметр ReFrames формата                : 8 кадров
Идентификатор кодека                     : V_MPEG4/ISO/AVC
Продолжительность                        : 1 ч. 47 м.
Битрейт                                  : 1388 Кбит/сек
Ширина                                   : 720 пикселей
Высота                                   : 432 пикселя
Соотношение сторон                       : 2,40:1
Соотношение сторон в оригинале           : 1,667
Режим частоты кадров                     : Постоянный
Частота кадров                           : 25,000 кадров/сек
Цветовое пространство                    : YUV
Субдискретизация насыщенности            : 4:2:0
Битовая глубина                          : 8 бит
Тип развёртки                            : Прогрессивная
Бит/(Пиксели*Кадры)                      : 0.179
Размер потока                            : 1,04 Гбайт (74%)
Библиотека кодирования                   : x264 core 79 r1342kMod e8501ef
Настройки программы                      : cabac=1 / ref=8 / deblock=1:0:0 / analyse=0x3:0x133 / me=umh / subme=9 / psy=0 / mixed_ref=1 / me_range=20 / chroma_me=1 / trellis=0 / 8x8dct=1 / cqm=0 / deadzone=21,11 / chroma_qp_offset=2 / threads=3 / nr=0 / decimate=1 / mbaff=0 / constrained_intra=0 / bframes=16 / b_pyramid=2 / b_adapt=2 / b_bias=0 / direct=1 / wpredb=1 / wpredp=2 / keyint=250 / keyint_min=25 / scenecut=40 / rc=cqp / mbtree=0 / qp=21 / ip_ratio=1.40 / pb_ratio=1.30 / aq=0
Default                                  : Да
Forced                                   : Нет
Аудио
Идентификатор                            : 2
Формат                                   : AC-3
Формат/Информация                        : Audio Coding 3
Расширение режима                        : CM (complete main)
Параметр Endianness формата              : Big
Идентификатор кодека                     : A_AC3
Продолжительность                        : 1 ч. 47 м.
Вид битрейта                             : Постоянный
Битрейт                                  : 448 Кбит/сек
Каналы                                   : 6 каналов
Расположение каналов                     : Front: L C R, Side: L R, LFE
Частота                                  : 48,0 КГц
Битовая глубина                          : 16 бит
Метод сжатия                             : С потерями
Размер потока                            : 344 Мбайт (24%)
Default                                  : Да
Forced                                   : Нет
Меню
00:00:00.000                             : :Chapter 1
00:12:27.840                             : :Chapter 2
00:26:54.720                             : :Chapter 3
00:43:36.000                             : :Chapter 4
00:56:03.840                             : :Chapter 5
01:11:48.960                             : :Chapter 6
01:28:53.760                             : :Chapter 7
01:43:29.760                             : :Chapter 8
Скриншоты
[reactorr.org].t28216.torrent
Торрент: Зарегистрирован [ 04-06-2013 00:17 ] · 412C73EA52BB8311484BFE773088B485349CABD0

Скачать .torrent

Скачать

14 KB

Статус: проверено
Скачан: 0 раз
Размер: 1,41 GB
terms.php
[Профиль] [ЛС]
Показать сообщения:    
Ответить на тему

Текущее время: 25-Мар 11:05

Часовой пояс: UTC + 3



Вы не можете начинать темы
Вы не можете отвечать на сообщения
Вы не можете редактировать свои сообщения
Вы не можете удалять свои сообщения
Вы не можете голосовать в опросах
Вы не можете прикреплять файлы к сообщениям
Вы можете скачивать файлы