Пункт Назначения 2 / Final Destination 2 (Дэвид Р. Эллис / David R. Ellis) [2003, США, Канада, Фантастика, ужасы, триллер, HDRip] AVO (Сергей Визгунов)

Ответить на тему
Статистика раздачи
Размер:  745 MB   |    Зарегистрирован:  4 года 1 месяц   |    Скачан:  4 раза

Полного источника не было: 1 год 7 месяцев

 
     
 
 
Автор Сообщение

wah3299 ®

Пол: Не указан

Стаж: 5 лет 4 месяца

Сообщений: 1

Создавать темы 22-Июн-2013 09:30

[Цитировать]

Пункт Назначения 2 / Final Destination 2
Страна: США, Канада
Жанр: Ужасы, триллер
Год выпуска: 2003
Продолжительность: 01:30:09
Перевод: Авторский (одноголосый закадровый) Сергей Визгунов
Cубтитры: нет
Оригинальная аудиодорожка: нет
Режиссер: Дэвид Р. Эллис / David R. Ellis
В ролях: А.Дж. Кук (Kimberly Corman), Майкл Лэндис (Thomas Burke), Эли Лартер (Clear Rivers), Джонатан Черри (Rory), Киган Коннор Трейси (Kat), Терренс «Т.К.» Карсон (Eugene Dix), Линда Бойд (Nora Carpenter), Джеймс Кирк (Tim Carpenter), Дэвид Петкау (Evan Lewis), Жустина Мачадо (Isabella Hudson), Сара Картер (Shaina), Алехандро Рэй (Dano)
Описание: Решив провести уикэнд с друзьями подальше от дома, Кимберли Корман становится невольным свидетелем жуткой автокатастрофы! На скоростной магистрали грузовик теряет управление, а вместе с ним и груз, что приводит к серии столкновений автомобилей и множеству жертв, среди которых она сама. Секунду спустя Кимберли снова чувствует биение своего сердца: она жива и по-прежнему за рулем машины. Видение? А может быть, предупреждение? Однако теперь и Кимберли, и водители, чьи машины не смогли выехать из-за нее к своей смерти, обречены — старуха с косой отказывается вычеркивать их из своего списка…
Доп. информация:
Исходник Визгунова (с пиратского DVD) - B@G
Синхронизация Визгунова - Данис Нурмухаметов
За видео спасибо Дрек
Сэмпл: Скачать
Качество видео: HDRip
Формат видео: AVI
Видео: 656x368 (1.78:1), 23.976 fps, XviD MPEG-4 ~1018 kbps avg, 0.17 bit/pixel
Аудио: 48 kHz, AC3 Dolby Digital, 2/0 (L,R) ch, ~128 kbps (Визгунов)
MediaInfo
Общее
Полное имя : E:\Punkt.Naznachenija.2.HDRip.2003.AVO.Vizgunov
Формат : AVI
Формат/Информация : Audio Video Interleave
Размер файла : 745 Мбайт
Продолжительность : 1 ч. 30 м.
Общий поток : 1156 Кбит/сек
Программа кодирования : VirtualDubMod 1.5.10.2 (build 2540/release)
Библиотека кодирования : VirtualDubMod build 2540/release
Видео
Идентификатор : 0
Формат : MPEG-4 Visual
Профиль формата : Advanced Simple@L5
Параметр BVOP формата : 2
Параметр QPel формата : Нет
Параметр GMC формата : Без точки перехода
Параметр матрицы формата : Выборочная
Режим смешивания : Сжатый битовый поток
Идентификатор кодека : XVID
Идентификатор кодека/Подсказка : XviD
Продолжительность : 1 ч. 30 м.
Битрейт : 1018 Кбит/сек
Ширина : 656 пикселей
Высота : 368 пикселей
Соотношение сторон : 16:9
Частота кадров : 23,976 кадра/сек
Цветовое пространство : YUV
Субдискретизация насыщенности : 4:2:0
Битовая глубина : 8 бит
Тип развёртки : Прогрессивная
Метод сжатия : С потерями
Бит/(Пиксели*Кадры) : 0.176
Размер потока : 657 Мбайт (88%)
Библиотека кодирования : XviD 64
Аудио
Идентификатор : 1
Формат : AC-3
Формат/Информация : Audio Coding 3
Расширение режима : CM (complete main)
Параметр Endianness формата : Big
Идентификатор кодека : 2000
Продолжительность : 1 ч. 30 м.
Вид битрейта : Постоянный
Битрейт : 128 Кбит/сек
Каналы : 2 канала
Расположение каналов : Front: L R
Частота : 48,0 КГц
Битовая глубина : 16 бит
Метод сжатия : С потерями
Размер потока : 82,5 Мбайт (11%)
Выравнивание : Разделение по промежуткам
Продолжительность промежутка : 42 мс. (1,00 видеокадр)
Время предзагрузки промежутка : 500 мс.
Скриншот c названием фильма
Скриншоты
[reactorr.org].t29045.torrent
Торрент: Зарегистрирован [ 22-06-2013 09:30 ] · 6B1AB9B7D4CD05C8B18D878E5A8922CC2D991EF1

Скачать .torrent

Скачать

15 KB

Статус: проверено
Скачан: 4 раз
Размер: 745 MB
terms.php
[Профиль] [ЛС]
Показать сообщения:    
Ответить на тему

Текущее время: 19-Авг 04:50

Часовой пояс: UTC + 3



Вы не можете начинать темы
Вы не можете отвечать на сообщения
Вы не можете редактировать свои сообщения
Вы не можете удалять свои сообщения
Вы не можете голосовать в опросах
Вы не можете прикреплять файлы к сообщениям
Вы можете скачивать файлы