Кровавый счёт / Hisaab Ka Khoon (Сурендера Мохан / Surendra Mohan) [1989, Индия, Боевик, мелодрама, триллер, DVDRip] DVO

Ответить на тему
Статистика раздачи
Размер:  1,46 GB   |    Зарегистрирован:  3 года 8 месяцев   |    Скачан:  2 раза

Полного источника не было: 1 год 1 месяц

 
     
 
 
Автор Сообщение

andrey856 ®

Пол: Не указан

Стаж: 7 лет 5 месяцев

Сообщений: 1

Создавать темы 01-Июл-2013 06:55

[Цитировать]

Кровавый счёт / Hisaab Ka Khoon
-Страна: Индия
Жанр: Боевик, триллер, мелодрама, приключения
Год выпуска: 1989
Продолжительность: 02:26:33-Перевод: Профессиональный (двухголосый, закадровый)
Cубтитры: Нет-Режиссер: Сурендера Мохан / Surendra Mohan-В ролях: Митхун Чакраборти, Радж Баббар, Пунам Дхилон, Мандакини, Амриш Пури, Бинду, Ом Шивпури, Саид Джапфри, Сушма Сет, Сатиш Шах, Гульшан Гровер Джамуна--Описание: «Клянусь тебе, сестра, я отомщу за твою смерть» - такими словами начинается этот остросюжетный фильм с элементами мистики. С огромным количеством танцев, музыки и различных шоу ведется рассказ о семье, над которой нависло проклятье старинного княжеского рода.--IMDb | Кинопоиск--Качество видео: DVDRip
Исходник: DVD5 без перевода
Формат видео: AVI-Видео: XVID 576x432, 23,976 fps, 1288 Kbps
Аудио: МР3, 48 kHz, 2 ch, 128 Kbps--Pиппер: soso4eg
Сведение звука: Алёна (спасибо!)- --
Скриншоты
-
MI
Общее
Полное имя : C:\INDIYA\[Релизы]\Krovavyi.schet.1989.DVDRip.XviD_soso4eg.avi
Формат : AVI
Формат/Информация : Audio Video Interleave
Размер файла : 1,46 Гбайт
Продолжительность : 2 ч. 26 м.
Общий поток : 1425 Кбит/сек
Название фильма : Krovavyi.schet.1989.DVDRip.XviD_soso4eg
Программа кодирования : VirtualDubMod 1.5.10.3 | www.virtualdub-fr.org || (build 2550/release)
Видео
Идентификатор : 0
Формат : MPEG-4 Visual
Профиль формата : Advanced Simple@L5
Параметр BVOP формата : 2
Параметр QPel формата : Нет
Параметр GMC формата : Без точки перехода
Параметр матрицы формата : Default (H.263)
Идентификатор кодека : XVID
Идентификатор кодека/Подсказка : XviD
Продолжительность : 2 ч. 26 м.
Битрейт : 1288 Кбит/сек
Ширина : 576 пикселей
Высота : 432 пикселя
Соотношение сторон : 4:3
Частота кадров : 23,976 кадра/сек
Цветовое пространство : YUV
Субдискретизация насыщенности : 4:2:0
Битовая глубина : 8 бит
Тип развёртки : Прогрессивная
Метод сжатия : С потерями
Бит/(Пиксели*Кадры) : 0.216
Размер потока : 1,32 Гбайт (90%)
Библиотека кодирования : XviD 1.2.1 (UTC 2008-12-04)
Аудио
Идентификатор : 1
Формат : MPEG Audio
Версия формата : Version 1
Профиль формата : Layer 3
Идентификатор кодека : 55
Идентификатор кодека/Подсказка : MP3
Продолжительность : 2 ч. 26 м.
Вид битрейта : Постоянный
Битрейт : 128 Кбит/сек
Каналы : 2 канала
Частота : 48,0 КГц
Метод сжатия : С потерями
Размер потока : 134 Мбайт (9%)
Выравнивание : Соединение по промежуткам
Продолжительность промежутка : 42 мс. (1,00 видеокадр)
Время предзагрузки промежутка : 504 мс.
Библиотека кодирования : LAME3.99r
Настройки программы : -m s -V 4 -q 2 -lowpass 17 -b 128
--
[reactorr.org].t29520.torrent
Торрент: Зарегистрирован [ 01-07-2013 06:55 ] · DAB13C5F142E57A826AECFA626827D494347C19E

Скачать .torrent

Скачать

15 KB

Статус: проверено
Скачан: 2 раз
Размер: 1,46 GB
terms.php
[Профиль] [ЛС]
Показать сообщения:    
Ответить на тему

Текущее время: 26-Мар 02:54

Часовой пояс: UTC + 3



Вы не можете начинать темы
Вы не можете отвечать на сообщения
Вы не можете редактировать свои сообщения
Вы не можете удалять свои сообщения
Вы не можете голосовать в опросах
Вы не можете прикреплять файлы к сообщениям
Вы можете скачивать файлы