Волшебник / Дядя Чиличало / A varázsló / A varazslo (Дьёрдь Палашти / György Palásthy) [1969, Венгрия, семейный, экранизация, TVRip] VO (Анатолий Гусев)

Ответить на тему
Статистика раздачи
Размер:  1,19 GB   |    Зарегистрирован:  3 года 11 месяцев   |    Скачан:  2 раза
Сидов:  7  [  0 KB/s  ]   Личеров:  3  [  0 KB/s  ]   Подробная статистика пиров
 
     
 
 
Автор Сообщение

jcs21 ®

Пол: Не указан

Стаж: 5 лет 8 месяцев

Сообщений: 2

Создавать темы 07-Июл-2013 00:40

[Цитировать]

Волшебник / Дядя Чиличало / A varázsló / A varazslo
Страна: Венгрия
Жанр: семейный, экранизация
Год выпуска: 1969
Продолжительность: 01:17:13
Перевод: Одноголосый закадровый (Анатолий Гусев)
Cубтитры: нет
Оригинальная аудиодорожка: венгерский
Режиссер: Дьёрдь Палашти / György Palásthy
В ролях: Антал Пагер, Габор Агарди, Хильда Гобби, Юдит Тот, Ласло Чакани, Иштван Эгри, Йожеф Сендрё, Янош Пагони, Янош Кёрменди, Ференс Лалуя, Карой Надь, Кристиан Ковач
Описание: По книге венгерского писателя Шандора Терека "Удивительные приключения мальчика и волшебника Чиличалы".
Первая часть трилогии о детях семьи Балог.
У Аладина был джин, у Вольки - Хоттабыч, а у мальчика Дюси Балога из Будапешта - друг-волшебник дядя Чиличало, который выполнял его, часто безрассудные, желания.
Доп. информация: http://www.imdb.com/title/tt0065170/
http://www.kinopoisk.ru/film/69100/od/1/
Сэмпл: http://yadi.sk/d/TOaoEOug6YOUw
Качество видео: TVRip
Формат видео: AVI
Видео: XVID Mpeg-4, 720x369 (16:9), 25.000 fps, 1800 kbps
Аудио: MP3, 48000 Hz, 2 ch, 192 kbps (VO)
Аудио 2: MP3, 48000 Hz, 2 ch, 192 kbps (Orig.)
MediaInfo
General
Complete name : C:\Torrents\A_Varazslo_1969_TVRip_rus.avi
Format : AVI
Format/Info : Audio Video Interleave
File size : 1.19 GiB
Duration : 1h 17mn
Overall bit rate : 2 198 Kbps
Writing application : VirtualDubMod 1.5.10.2 (build 2540/release)
Writing library : VirtualDubMod build 2540/release
Video
ID : 0
Format : MPEG-4 Visual
Format profile : Simple@L1
Format settings, BVOP : No
Format settings, QPel : No
Format settings, GMC : No warppoints
Format settings, Matrix : Default (H.263)
Codec ID : XVID
Codec ID/Hint : XviD
Duration : 1h 17mn
Bit rate : 1 800 Kbps
Width : 720 pixels
Height : 369 pixels
Display aspect ratio : 5:4
Original display aspect ratio : 1.951
Frame rate : 25.000 fps
Color space : YUV
Chroma subsampling : 4:2:0
Bit depth : 8 bits
Scan type : Progressive
Compression mode : Lossy
Bits/(Pixel*Frame) : 0.271
Stream size : 994 MiB (82%)
Writing library : Lavc52.0.0
Audio #1
ID : 1
Format : MPEG Audio
Format version : Version 1
Format profile : Layer 3
Mode : Joint stereo
Codec ID : 55
Codec ID/Hint : MP3
Duration : 1h 17mn
Bit rate mode : Constant
Bit rate : 192 Kbps
Channel(s) : 2 channels
Sampling rate : 48.0 KHz
Compression mode : Lossy
Stream size : 106 MiB (9%)
Alignment : Aligned on interleaves
Interleave, duration : 40 ms (1.00 video frame)
Interleave, preload duration : 504 ms
Audio #2
ID : 2
Format : MPEG Audio
Format version : Version 1
Format profile : Layer 3
Codec ID : 55
Codec ID/Hint : MP3
Duration : 1h 17mn
Bit rate mode : Constant
Bit rate : 192 Kbps
Channel(s) : 2 channels
Sampling rate : 44.1 KHz
Compression mode : Lossy
Stream size : 106 MiB (9%)
Alignment : Split accross interleaves
Interleave, duration : 40 ms (1.00 video frame)
Interleave, preload duration : 500 ms
Скриншот c названием фильма
Скриншоты
[reactorr.org].t29771.torrent
Торрент: Зарегистрирован [ 07-07-2013 00:40 ] · 7DDFE22F7A2BEE1C18FFFF2A179DC9651D4EFE9B

Скачать .torrent

Скачать

12 KB

Статус: проверено
Скачан: 2 раз
Размер: 1,19 GB
terms.php
[Профиль] [ЛС]
Показать сообщения:    
Ответить на тему

Текущее время: 23-Июн 20:27

Часовой пояс: UTC + 3



Вы не можете начинать темы
Вы не можете отвечать на сообщения
Вы не можете редактировать свои сообщения
Вы не можете удалять свои сообщения
Вы не можете голосовать в опросах
Вы не можете прикреплять файлы к сообщениям
Вы можете скачивать файлы