Любовный треугольник / Pati Patni Aur Tawaif (Раджкумар Коли / Rajkumar Kohli) [1990, Индия, Драма, DVDRip] VO

Ответить на тему
Статистика раздачи
Размер:  1,09 GB   |    Зарегистрирован:  3 года 3 месяца   |    Скачан:  1 раз

Полного источника не было: 1 год 6 месяцев

 
     
 
 
Автор Сообщение

lypse ®

Пол: Не указан

Стаж: 6 лет 6 месяцев

Сообщений: 1

Создавать темы 23-Май-2014 11:30

[Цитировать]

Любовный треугольник / Pati Patni Aur Tawaif
Страна: Индия
Жанр: Драма
Год выпуска: 1990
Продолжительность: 02:36:28
Перевод: Одноголосый закадровый
Cубтитры: нет
Режиссер: Раджкумар Коли / Rajkumar Kohli
В ролях: Салма Ага, Харбанс Даршан, Бирбал, Митхун Чакраборти, Соника Гилл, Гюльшан, Аруна Ирани, Джагдип, Джанкидас, Амджад Кхан
Описание: Виджай - известный актер и режиссер, живет со своей женой Шанти и сыном.
Любовь и согласие царит в их доме, пока в их жизнь не врывается самовлюбленная и наглая куртизанка Гаури...
Доп. информация: Релиз
Автор рипа: Shizik (Спасибо!)
Сведение звука - Алёна (Спасибо!)
Сэмпл: http://multi-up.com/968924
Качество видео: DVDRip
Формат видео: AVI
Видео: XviD build 50, 512x384 (1.33:1), 29.970 fps, 795 kbps avg
Аудио: AC3 Dolby Digital, 48 kHz, 2/0 (L,R) ch, 192.00 kbps avg
MediaInfo
General
Complete name : D:\Lybovniy.treugolnik.1990.DVDRip.avi
Format : AVI
Format/Info : Audio Video Interleave
File size : 1.09 GiB
Duration : 2h 36mn
Overall bit rate : 999 Kbps
Writing application : VirtualDubMod 1.5.10.2 (build 2540/release)
Writing library : VirtualDub build 30009/release
Video
ID : 0
Format : MPEG-4 Visual
Format profile : AdvancedSimple@L5
Format settings, BVOP : Yes
Format settings, QPel : No
Format settings, GMC : No warppoints
Format settings, Matrix : Custom
Codec ID : XVID
Codec ID/Hint : XviD
Duration : 2h 36mn
Bit rate : 795 Kbps
Width : 512 pixels
Height : 384 pixels
Display aspect ratio : 4/3
Frame rate : 29.970 fps
Resolution : 24 bits
Colorimetry : 4:2:0
Scan type : Progressive
Bits/(Pixel*Frame) : 0.135
Stream size : 890 MiB (80%)
Writing library : XviD 1.2.1 (UTC 2008-12-04)
Audio
ID : 1
Format : AC-3
Format/Info : Audio Coding 3
Codec ID : 2000
Duration : 2h 36mn
Bit rate mode : Constant
Bit rate : 192 Kbps
Channel(s) : 2 channels
Channel positions : L R
Sampling rate : 48.0 KHz
Stream size : 215 MiB (19%)
Alignment : Split accross interleaves
Interleave, duration : 33 ms (1.00 video frame)
Interleave, preload duration : 500 ms
Скриншоты
[reactorr.org].t44912.torrent
Торрент: Зарегистрирован [ 23-05-2014 11:30 ] · AE470FE140B3B895429BC10FD0318F77B339CA63

Скачать .torrent

Скачать

11 KB

Статус: проверено
Скачан: 1 раз
Размер: 1,09 GB
terms.php
[Профиль] [ЛС]
Показать сообщения:    
Ответить на тему

Текущее время: 24-Авг 05:55

Часовой пояс: UTC + 3



Вы не можете начинать темы
Вы не можете отвечать на сообщения
Вы не можете редактировать свои сообщения
Вы не можете удалять свои сообщения
Вы не можете голосовать в опросах
Вы не можете прикреплять файлы к сообщениям
Вы можете скачивать файлы