Национальный театр: 50 лет на сцене / National Theatre Live: 50 Years on Stage (Николас Хайтнер) [2013, Великобритания, Комедия, WEB-DLRip] National Theatre Live

Ответить на тему
Статистика раздачи
Размер:  1,9 GB   |    Зарегистрирован:  4 года 3 месяца   |    Скачан:  31 раз
Сидов:  3  [  0 KB/s  ]   Личеров:  3  [  0 KB/s  ]   Подробная статистика пиров
 
     
 
 
Автор Сообщение

Гость ®

Пол: Не указан

Создавать темы 25-Май-2014 11:00

[Цитировать]

Национальный театр: 50 лет на сцене / National Theatre Live: 50 Years on Stage
Название театра: National Theatre Live
Страна: Великобритания
Жанр: Документальный
Год выпуска: 2013
Продолжительность: 02:48:00
Перевод: Отсутствует
Cубтитры: нет
Оригинальная аудиодорожка: английский
Режиссёр: Николас Хайтнер
В ролях: Мэгги Смит, Бенедикт Камбербэтч, Джуди Денч, Рэйф Файнс, Адриан Лестер, Хелен Миррен, Эндрю Скотт, Доминик Купер, Рори Киннир, Кристофер Экклстон, Алекс Дженнингс, Анна Мартин, Дерек Джейкоби, Джеймс Доэрти, Джонатан Бейли, Линдси Маршал, Майкл Гэмбон, Роджер Аллам, Рори Киннир, Фрэнсис де ла Тур
Описание: История театра во фрагментах его незабываемых постановок. В честь 50-летия Королевского Национального театра 2 ноября 2013 года под руководством нынешнего художественного руководителя Николаса Хайтнера прошло уникальное мероприятие с участием лучших британских актеров. В этот вечер Саймон Расселл Бил, Хелен Миррен, Бенедикт Камбербатч и многие другие вышли на сцену, чтобы вновь представить зрителям эпизоды из таких спектаклей, как: «Розенкранц и Гильденстерн мертвы», «Любители истории», «Антоний и Клеопатра», «Ангелы в Америке» и «Парни и куколки».
В программе также - редкие архивные материалы и интервью с участниками, проливающие свет на историю одного из самых интересных драматических театров Великобритании.
Доп. информация:
Если найдете русские или английские субтитры, буду очень благодарна!
Если нарушаются лицензионные права, удалите пожалуйста!
В юбилейной постановке было задействовано порядка 100 актеров.
Первым художественным руководителем Королевского Национального театра (с 1963 по 1973 гг.) являлся Лоуренс Оливье.



Качество видео: WEB-DLRip
Формат видео: AVI
Видео: xvid, 720x576, 5:4, 1668 Кбит/сек, 29,970 кадров/сек
Аудио: English, MPEG Audio, 48,0 КГц, 192 Кбит/сек, 2 канала
MediaInfo
Общее
Полное имя : F:\Театр\Live from the National Theatre 50 Years on Stage.avi
Формат : AVI
Формат/Информация : Audio Video Interleave
Профиль формата : OpenDML
Размер файла : 1,90 Гбайт
Продолжительность : 2 ч. 25 м.
Общий поток : 1874 Кбит/сек
Программа кодирования : Lavf52.39.0
Видео
Идентификатор : 0
Формат : xvid
Идентификатор кодека : xvid
Продолжительность : 2 ч. 25 м.
Битрейт : 1668 Кбит/сек
Ширина : 720 пикселей
Высота : 576 пикселей
Соотношение сторон : 5:4
Частота кадров : 29,970 кадров/сек
Стандарт вещания : PAL
Бит/(Пиксели*Кадры) : 0.134
Размер потока : 1,69 Гбайт (89%)
Аудио
Идентификатор : 1
Формат : MPEG Audio
Версия формата : Version 1
Профиль формата : Layer 3
Режим : Joint stereo
Идентификатор кодека : 55
Идентификатор кодека/Подсказка : MP3
Продолжительность : 2 ч. 25 м.
Вид битрейта : Постоянный
Битрейт : 192 Кбит/сек
Каналы : 2 канала
Частота : 48,0 КГц
Метод сжатия : С потерями
Размер потока : 199 Мбайт (10%)
Выравнивание : Соединение по промежуткам
Продолжительность промежутка : 24 мс. (0,72 видеокадр)
Библиотека кодирования : LAME3.98.2
Скриншот с названием постановки
Скриншоты


[reactorr.org].t46123.torrent
Торрент: Зарегистрирован [ 25-05-2014 11:00 ] · 2CE54C85063941D37A9D8505E465AEF8A24F5053

Скачать .torrent

Скачать

20 KB

Статус: проверено
Скачан: 31 раз
Размер: 1,9 GB
terms.php
 

luckyed

Пол: Не указан

Стаж: 1 год 11 месяцев

Сообщений: 1

Создавать темы 17-Окт-2016 11:47 (спустя 2 года 4 месяца)

[Цитировать]

Вы можете помочь мне скачать этот спектакль. Мне кажется, я нашёл субтитры, но хотелось бы проверить.
[Профиль] [ЛС]

IsrealSkeft

Пол: Мужской

Стаж: 18 дней

Сообщений: 1

Откуда: Argentina

Создавать темы 05-Сен-2018 04:29 (спустя 1 год 10 месяцев)

[Цитировать]

Сергей Станиславович Позняк fgk Позняк Сергей fgk
[Профиль] [ЛС]
Показать сообщения:    
Ответить на тему

Текущее время: 23-Сен 12:18

Часовой пояс: UTC + 3



Вы не можете начинать темы
Вы не можете отвечать на сообщения
Вы не можете редактировать свои сообщения
Вы не можете удалять свои сообщения
Вы не можете голосовать в опросах
Вы не можете прикреплять файлы к сообщениям
Вы можете скачивать файлы