Гарри Поттер и философский камень / Harry Potter and the Sorcerer's Stone (Крис Коламбус / Chris Columbus) [2001, Великобритания, Фэнтези, Приключения, Семейный, BDRip-AVC] Dub (CEE) + MVO (Кравец) + DVO (Гланц и Королева) + Orig + Subs (Rus, Eng)

Ответить на тему
Статистика раздачи
Размер:  3.71 GB   |    Зарегистрирован:  2 года 7 месяцев   |    Скачан:  1 раз
Сидов:  428  [  0 KB/s  ]   Личеров:  78  [  0 KB/s  ]   Подробная статистика пиров
 
     
 
 
Автор
Сообщение

Гарри Поттер и философский камень / Harry Potter and the Sorcerer's Stone«Путешествие в твою мечту»- Страна: США , Великобритания
Жанр: Фэнтези, Приключения, Семейный
Год выпуска: 2001
Продолжительность: 02:32:21-Перевод #1: Профессиональный (полное дублирование, CEE)
Оригинальная аудиодорожка: Английский
Cубтитры: Русские (полные, форсированные), Английские (полные) (*srt)-Отдельно:
Перевод #3: Профессиональный (многоголосый закадровый, Студия "Кравец")
Перевод #4: Профессиональный (двухголосый закадровый, Гланц и Королева)-Режиссер: Крис Коламбус / Chris Columbus-В ролях: Дэниэл Рэдклифф, Руперт Гринт, Эмма Уотсон, Ричард Харрис, Алан Рикман, Мэгги Смит, Робби Колтрейн, Том Фелтон, Мэттью Льюис, Иэн Харт и др.-Описание:Жизнь десятилетнего Гарри Поттера нельзя назвать сладкой: его родители умерли, едва ему исполнился год, а от дяди и тётки, взявших сироту на воспитание, достаются лишь тычки да подзатыльники. Но в одиннадцатый день рождения Гарри всё меняется. Странный гость, неожиданно появившийся на пороге, приносит письмо, из которого мальчик узнаёт, что на самом деле он чистокровный волшебник и принят в Хогвартс — школу магии. А уже через пару недель Гарри будет мчаться в поезде Хогвартс-экспресс навстречу новой жизни, где его ждут невероятные приключения, верные друзья и самое главное — ключ к разгадке тайны смерти его родителей.-Автор: AngelOfTrue-Качество видео: BDRip-AVC | [HARRY_POTTER_COLLECTION_HDCLUB]
Формат видео: MKV-Видео: 968x402 (2,40:1), 23,976 fps, x264 ~1960 kbps avg, 0.210 bit/pixel
Аудио #1: AC3 Dolby Digital / 48 KHz / 384 kbps / 3/2 (L,C,R,l,r) + LFE ch| Dub (CEE)
Аудио #2: AC3 Dolby Digital / 48 KHz / 384 kbps / 3/2 (L,C,R,l,r) + LFE ch| Original (English)
Размер: 2.90 GB (⅔ DVD) - без отдельных аудиодорог!-Отдельно:
Аудио #3: AC3 Dolby Digital / 48 KHz / 384 kbps / 3/2 (L,C,R,l,r) + LFE ch| MVO (Кравец)
Аудио #4: AC3 Dolby Digital / 48 KHz / 384 kbps / 3/2 (L,C,R,l,r) + LFE ch| DVO (Гланц и Королева)-

FAQ по просмотру MKV/h.264/AAC

x264 log

avs [info]: 968x402p 1:1 @ 2997/125 fps (cfr)
x264 [warning]: --psnr used with psy on: results will be invalid!
x264 [warning]: --tune psnr should be used if attempting to benchmark psnr!
x264 [info]: using SAR=1/1
x264 [info]: using cpu capabilities: MMX2 SSE2Fast SSSE3 SSE4.2 AVX AVX2 FMA3 LZCNT BMI1 BMI2
x264 [info]: profile High, level 3.1
x264 [info]: frame I:1926 Avg QP:17.16 size: 58189 PSNR Mean Y:46.01 U:50.32 V:51.73 Avg:46.95 Global:46.32
x264 [info]: frame P:44119 Avg QP:19.71 size: 20435 PSNR Mean Y:44.19 U:50.84 V:52.17 Avg:45.28 Global:44.52
x264 [info]: frame B:173135 Avg QP:21.51 size: 7076 PSNR Mean Y:43.50 U:50.32 V:51.94 Avg:44.63 Global:43.87
x264 [info]: consecutive B-frames: 1.9% 2.0% 5.9% 18.3% 17.8% 29.7% 9.5% 7.6% 2.6% 1.8% 1.3% 1.6%
x264 [info]: mb I I16..4: 5.2% 78.3% 16.5%
x264 [info]: mb P I16..4: 0.5% 11.7% 1.7% P16..4: 31.5% 38.5% 13.1% 1.9% 0.2% skip: 0.9%
x264 [info]: mb B I16..4: 0.1% 1.2% 0.3% B16..8: 38.0% 22.0% 3.3% direct: 5.7% skip:29.5% L0:43.1% L1:44.0% BI:12.9%
x264 [info]: 8x8 transform intra:80.9% inter:60.7%
x264 [info]: direct mvs spatial:99.4% temporal:0.6%
x264 [info]: coded y,uvDC,uvAC intra: 87.2% 85.9% 59.7% inter: 28.1% 21.9% 7.1%
x264 [info]: i16 v,h,dc,p: 24% 12% 9% 55%
x264 [info]: i8 v,h,dc,ddl,ddr,vr,hd,vl,hu: 15% 8% 7% 9% 13% 12% 12% 11% 12%
x264 [info]: i4 v,h,dc,ddl,ddr,vr,hd,vl,hu: 38% 6% 4% 6% 10% 10% 9% 8% 8%
x264 [info]: i8c dc,h,v,p: 35% 28% 20% 17%
x264 [info]: Weighted P-Frames: Y:18.4% UV:9.9%
x264 [info]: ref P L0: 47.7% 9.1% 16.6% 7.9% 5.7% 4.4% 3.5% 2.0% 1.6% 1.2% 0.3% 0.0%
x264 [info]: ref B L0: 69.9% 14.6% 6.6% 3.2% 2.2% 1.6% 1.2% 0.5% 0.2%
x264 [info]: ref B L1: 91.6% 8.4%
x264 [info]: SSIM Mean Y:0.9744092 (15.919db)
x264 [info]: PSNR Mean Y:43.658 U:50.420 V:51.988 Avg:44.779 Global:44.009 kb/s:1959.09
x264 [total]: encoded 219180 frames, 10.05 fps, 1959.09 kb/s
-

MediaInfo

Формат : Matroska
Версия формата : Version 4 / Version 2
Размер файла : 2,90 Гбайт
Продолжительность : 2 ч. 32 м.
Общий поток : 2729 Кбит/сек
Дата кодирования : UTC 2013-11-12 12:31:12
Программа кодирования : mkvmerge v6.1.0 ('Old Devil') built on Mar 4 2013 09:10:42
Библиотека кодирования : libebml v1.3.0 + libmatroska v1.4.0
Видео
Идентификатор : 1
Формат : AVC
Формат/Информация : Advanced Video Codec
Профиль формата : High@L3.1
Параметр CABAC формата : Да
Параметр ReFrames формата : 10 кадров
Идентификатор кодека : V_MPEG4/ISO/AVC
Продолжительность : 2 ч. 32 м.
Битрейт : 1960 Кбит/сек
Ширина : 968 пикселей
Высота : 402 пикселя
Соотношение сторон : 2,40:1
Режим частоты кадров : Постоянный
Частота кадров : 23,976 кадра/сек
Цветовое пространство : YUV
Субдискретизация насыщенности : 4:2:0
Битовая глубина : 8 бит
Тип развёртки : Прогрессивная
Бит/(Пиксели*Кадры) : 0.210
Размер потока : 2,03 Гбайт (70%)
Заголовок : Harry.Potter.And.The.Sorcerer's.Stone.2001.DUAL.BDRip-AVC.AC3.-AngelOfTrue
Библиотека кодирования : x264 core 130 r2273 b3065e6
Настройки программы : cabac=1 / ref=10 / deblock=1:-3:-2 / analyse=0x3:0x133 / me=umh / subme=11 / psy=1 / psy_rd=1.00:0.10 / mixed_ref=1 / me_range=32 / chroma_me=1 / trellis=2 / 8x8dct=1 / cqm=0 / deadzone=21,11 / fast_pskip=0 / chroma_qp_offset=-3 / threads=6 / lookahead_threads=1 / sliced_threads=0 / nr=0 / decimate=0 / interlaced=0 / bluray_compat=0 / constrained_intra=0 / bframes=11 / b_pyramid=2 / b_adapt=2 / b_bias=0 / direct=3 / weightb=1 / open_gop=0 / weightp=2 / keyint=250 / keyint_min=23 / scenecut=40 / intra_refresh=0 / rc=2pass / mbtree=0 / bitrate=1960 / ratetol=1.0 / qcomp=0.65 / qpmin=10 / qpmax=51 / qpstep=4 / cplxblur=20.0 / qblur=0.5 / ip_ratio=1.35 / pb_ratio=1.25 / aq=2:1.00
Язык : Russian
Default : Да
Forced : Нет
Аудио #1
Идентификатор : 2
Формат : AC-3
Формат/Информация : Audio Coding 3
Расширение режима : CM (complete main)
Параметр Endianness формата : Big
Идентификатор кодека : A_AC3
Продолжительность : 2 ч. 32 м.
Вид битрейта : Постоянный
Битрейт : 384 Кбит/сек
Каналы : 6 каналов
Расположение каналов : Front: L C R, Side: L R, LFE
Частота : 48,0 КГц
Битовая глубина : 16 бит
Метод сжатия : С потерями
Размер потока : 418 Мбайт (14%)
Заголовок : Dub
Язык : Russian
Default : Да
Forced : Нет
Аудио #2
Идентификатор : 3
Формат : AC-3
Формат/Информация : Audio Coding 3
Расширение режима : CM (complete main)
Параметр Endianness формата : Big
Идентификатор кодека : A_AC3
Продолжительность : 2 ч. 32 м.
Вид битрейта : Постоянный
Битрейт : 384 Кбит/сек
Каналы : 6 каналов
Расположение каналов : Front: L C R, Side: L R, LFE
Частота : 48,0 КГц
Битовая глубина : 16 бит
Метод сжатия : С потерями
Размер потока : 418 Мбайт (14%)
Заголовок : Original (English)
Язык : English
Default : Нет
Forced : Нет
Текст #1
Идентификатор : 4
Формат : UTF-8
Идентификатор кодека : S_TEXT/UTF8
Идентификатор кодека/Информация : UTF-8 Plain Text
Заголовок : Russian (for)
Язык : Russian
Default : Да
Forced : Да
Текст #2
Идентификатор : 5
Формат : UTF-8
Идентификатор кодека : S_TEXT/UTF8
Идентификатор кодека/Информация : UTF-8 Plain Text
Заголовок : Russian (full)
Язык : Russian
Default : Нет
Forced : Нет
Текст #3
Идентификатор : 6
Формат : UTF-8
Идентификатор кодека : S_TEXT/UTF8
Идентификатор кодека/Информация : UTF-8 Plain Text
Заголовок : English (full)
Язык : English
Default : Нет
Forced : Нет
-

Скриншоты



-Остальные части Гарри Поттера
Гарри Поттер и философский камень / Harry Potter and the Sorcerer's Stone
 
Показать сообщения:    
Ответить на тему