Ветка жасмина у дома Ситы / Seethamma Vakitlo Sirimalle Chettu (Шрикант Аддала / Srikanth Addala) [2013, Индия, Драма, комедия, семейный, НDRip] MVO (Red Media)

Ответить на тему
Статистика раздачи
Размер:  1.46 GB   |    Зарегистрирован:  2 года 7 месяцев   |    Скачан:  1 раз
Сидов:  26  [  0 KB/s  ]   Подробная статистика пиров
 
     
 
 
Автор
Сообщение

Ветка жасмина у дома Ситы / Seethamma Vakitlo Sirimalle Chettu
-Страна: Индия
Жанр: Драма, комедия, семейный
Год выпуска: 2013
Продолжительность: 02:38:45-Перевод: Профессиональный (многоголосый закадровый) - Red Media [Индия ТВ]
Субтитры: Нет--Режиссер: Шрикант Аддала / Srikanth Addala-В ролях: Венкатеш, Махеш Бабу, Саманта Рут Прабху, Анджали, Джаясудха, Пракаш Радж, Рохини Хаттангади, Мурали Мохан, Ахути Прасад, Рао Рамеш, Таникелла Бхарани, Рама Прабха, Кота Шриниваса Рао, Раджита, Рави Бабу-Описание: Хорошо сложенная сказка, история об уважаемом и добросердечном человеке (Пракаш Радж), у которого два сына Педду (Венкатеш) и Чинну (Махеш Бабу). Оба брата очень разные по характеру. Педду прямолинеен, упрям, вспыльчив и верит что найдет свой путь в жизни. Чинну очаровательный уличный парень, умница, уверен, что сорвет в жизни джек-пот. Оба они безработные и у них есть постоянные проблемы. Педду очень нравится его двоюродная сестра Сита (Анджали), которая заботится о нем, а Чинну влюбляется в Гиту (Саманта). Но отец Гиты (Рао Рамеш), который хоть и тесно связан с семьей, но больше верит в престиж, деньги и славу, чем во все остальное. Что произойдет в остальной части истории, вы увидите в этом очаровательном семейном фильме.-- | --Качество видео: HDRip (исх. BDRip 720p)
Формат видео: AVI-Видео: 688x288 (2.39:1), 24.000 fps, XviD build 50 ~1180 kbps avg, 0.28 bit/pixel
Аудио: 48 kHz, MPEG Layer 3, 2 ch, ~128.00 kbps-Сэмпл / Sample
-
Рип, сведение звука: soso4eg-- --

Скриншот с названием:

-

Скриншоты:

-

MediaInfo:

General
Complete name : C:\INDIYA\[Релизы]\Vetka.Zhasmina.u.Doma.Sity.2013.HDRip.XviD-soso4eg.avi
Format : AVI
Format/Info : Audio Video Interleave
File size : 1.46 GiB
Duration : 2h 38mn
Overall bit rate : 1 317 Kbps
Movie name : Vetka.Zhasmina.u.Doma.Sity.2013.HDRip.XviD-soso4eg
Director : soso4eg
Writing application : VirtualDubMod 1.5.10.3 | www.virtualdub-fr.org || (build 2550/release)
Original source form/Name : Movie
Copyright : специально для BitTorrent трекер RuTracker.org (ex torrents.ru)
Video
ID : 0
Format : MPEG-4 Visual
Format profile : Advanced Simple@L5
Format settings, BVOP : 1
Format settings, QPel : No
Format settings, GMC : No warppoints
Format settings, Matrix : Default (H.263)
Codec ID : XVID
Codec ID/Hint : XviD
Duration : 2h 38mn
Bit rate : 1 180 Kbps
Width : 688 pixels
Height : 288 pixels
Display aspect ratio : 2.40:1
Frame rate : 24.000 fps
Color space : YUV
Chroma subsampling : 4:2:0
Bit depth : 8 bits
Scan type : Progressive
Compression mode : Lossy
Bits/(Pixel*Frame) : 0.248
Stream size : 1.31 GiB (90%)
Writing library : XviD 1.2.1 (UTC 2008-12-04)
Audio
ID : 1
Format : MPEG Audio
Format version : Version 1
Format profile : Layer 3
Mode : Joint stereo
Mode extension : MS Stereo
Codec ID : 55
Codec ID/Hint : MP3
Duration : 2h 38mn
Bit rate mode : Constant
Bit rate : 128 Kbps
Channel(s) : 2 channels
Sampling rate : 48.0 KHz
Compression mode : Lossy
Stream size : 145 MiB (10%)
Alignment : Aligned on interleaves
Interleave, duration : 42 ms (1.00 video frame)
Interleave, preload duration : 504 ms
--
 
Показать сообщения:    
Ответить на тему