Разъяренный / Angaara (Анил Гангули / Anil Ganguly) [1996, Индия, Боевик, DVDRip] MVO

Ответить на тему
Статистика раздачи
Размер:  1,46 GB   |    Зарегистрирован:  2 года 7 месяцев   |    Скачан:  2 раза
Сидов:  1  [  0 KB/s  ]   Личеров:  1  [  0 KB/s  ]   Подробная статистика пиров
 
     
 
 
Автор Сообщение

AleksMixx ®

Пол: Не указан

Стаж: 5 лет

Сообщений: 3

Создавать темы 01-Авг-2014 23:55

[Цитировать]

Разъяренный / Angaara
Страна: Индия
Жанр: Боевик
Год выпуска: 1996
Продолжительность: 02:07:31
Перевод: Профессиональный (многоголосый закадровый)
Cубтитры: нет
Режиссер: Анил Гангули / Anil Ganguly
В ролях: Садашив Амрапуркар, Суреш Бхагват, Хемант Бирдж, Митхун Чакраборти, Суреш Чатвал, Судхир Далви, Тарун Гхош, Фарида Джалал, Мохан Джоши, Гога Капур
Описание: После краха финансовой компании за решетку попадает ее владелец Кайлош, которого подставили три его компаньона. Прошли годы. Сын невинно осужденного Сагар пытается восстановить справедливость и наказать преступников. Но сделать это непросто и Сагару не раз придется воспользоваться хитростью, силой и помощью своих друзей.
Доп. информация: Исходник DVD-9 (СПАСИБО! Gahan Dave)
Сэмпл: http://multi-up.com/989957
Качество видео: DVDRip
Формат видео: AVI
Видео: XviD build 50, 688x368 (1.87:1), 25 fps, 1500 kbps avg
Аудио: MPEG Layer 3, 48 kHz, 2/0 (L,R) ch, 128.00 kbps avg
MediaInfo
General
Complete name : D:\Razjarennyj.1996.XviD.DVDRip-Dego.avi
Format : AVI
Format/Info : Audio Video Interleave
File size : 1.46 GiB
Duration : 2h 7mn
Overall bit rate : 1 638 Kbps
Writing application : VirtualDubMod 1.5.10.2 (build 2540/release)
Writing library : VirtualDubMod build 2540/release
Video
ID : 0
Format : MPEG-4 Visual
Format profile : AdvancedSimple@L5
Format settings, BVOP : Yes
Format settings, QPel : No
Format settings, GMC : No warppoints
Format settings, Matrix : Custom
Codec ID : XVID
Codec ID/Hint : XviD
Duration : 2h 7mn
Bit rate : 1 501 Kbps
Width : 688 pixels
Height : 368 pixels
Display aspect ratio : 1.870
Frame rate : 25.000 fps
Resolution : 24 bits
Colorimetry : 4:2:0
Scan type : Progressive
Bits/(Pixel*Frame) : 0.237
Stream size : 1.34 GiB (92%)
Writing library : XviD 1.2.1 (UTC 2008-12-04)
Audio
ID : 1
Format : MPEG Audio
Format version : Version 1
Format profile : Layer 3
Codec ID : 55
Codec ID/Hint : MP3
Duration : 2h 7mn
Bit rate mode : Constant
Bit rate : 128 Kbps
Channel(s) : 2 channels
Sampling rate : 48.0 KHz
Resolution : 16 bits
Stream size : 117 MiB (8%)
Alignment : Aligned on interleaves
Interleave, duration : 40 ms (1.00 video frame)
Interleave, preload duration : 504 ms
Writing library : LAME3.98r
Encoding settings : -m s -V 4 -q 2 -lowpass 17 -b 128
Скриншоты
Сравнения
[reactorr.org].t60352.torrent
Торрент: Зарегистрирован [ 01-08-2014 23:55 ] · F4715087FB1340B70FD5990D42E1A6F85CF0CB53

Скачать .torrent

Скачать

15 KB

Статус: проверено
Скачан: 2 раз
Размер: 1,46 GB
terms.php
[Профиль] [ЛС]
Показать сообщения:    
Ответить на тему

Текущее время: 26-Мар 02:53

Часовой пояс: UTC + 3



Вы не можете начинать темы
Вы не можете отвечать на сообщения
Вы не можете редактировать свои сообщения
Вы не можете удалять свои сообщения
Вы не можете голосовать в опросах
Вы не можете прикреплять файлы к сообщениям
Вы можете скачивать файлы