Треугольник / Triangle (Кристофер Смит / Christopher Smith) [2009, Великобритания, Австралия, триллер, драма, детектив, SATRip] DVO (Кинолюкс)

Ответить на тему
Статистика раздачи
Размер:  1,45 GB   |    Зарегистрирован:  2 года 11 месяцев   |    Скачан:  2 раза
Сидов:  20  [  0 KB/s  ]   Личеров:  7  [  0 KB/s  ]   Подробная статистика пиров
 
     
 
 
Автор Сообщение

chiz08 ®

Пол: Не указан

Стаж: 4 года 5 месяцев

Сообщений: 3

Создавать темы 17-Ноя-2014 23:55

[Цитировать]

Треугольник / Triangle
Страна: Великобритания, Австралия
Жанр: триллер, драма, детектив
Год выпуска: 2009
Продолжительность: 01:34:50
Перевод: Профессиональный (двухголосый закадровый) Кинолюкс/R5
Cубтитры: нет
Оригинальная аудиодорожка: нет
Режиссер: Кристофер Смит / Christopher Smith
В ролях: Мелисса Джордж, Джошуа МакИвор, Джек Тейлор, Майкл Дорман, Генри Никсон, Рейчал Карпани, Эмма Ланг, Лайам Хемсворт, Bryan Probets
Описание: Грег приглашает свою подругу Джесс, молодую мать-одиночку, провести день на яхте в кругу своих друзей. Начавшийся сильный шторм переворачивает судно, и оставшиеся в живых вынуждены дожидаться помощи, цепляясь за перевернутый корпус яхты. Спасение приходит в виде огромного океанического лайнера. Судно оказывается пустым, часы на борту остановились. Но они не одни на этом огромном корабле - за ними кто-то неустанно следит...
Доп. информация: SATRip имеет иное наполнение кадра чем BD http://screenshotcomparison.com/comparison/100465
Сэмпл: http://multi-up.com/1013695
Качество видео: SATRip
Формат видео: AVI
Видео: MPEG4, XviD, 720x400 (16/9), 25.000 fps, 1 734 Kbps (0.241 bit/pixel)
Аудио: AC-3, 48.0 KHz, 6 ch, 448 Kbps, CBR
MediaInfo
Общее
Полное имя : K:\Треугольник.avi
Формат : AVI
Формат/Информация : Audio Video Interleave
Размер файла : 1,45 Гбайт
Продолжительность : 1 ч. 34 м.
Общий поток : 2192 Кбит/сек
Название фильма : Треугольник / Triangle (2009)
Программа кодирования : VirtualDubMod 1.5.10.2 (build 2540/release)
Библиотека кодирования : VirtualDubMod build 2540/release
Правообладатель : miha2154
Видео
Идентификатор : 0
Формат : MPEG-4 Visual
Профиль формата : Advanced Simple@L5
Параметр BVOP формата : 1
Параметр QPel формата : Нет
Параметр GMC формата : Без точки перехода
Параметр матрицы формата : Выборочная
Идентификатор кодека : XVID
Идентификатор кодека/Подсказка : XviD
Продолжительность : 1 ч. 34 м.
Битрейт : 1734 Кбит/сек
Ширина : 720 пикселей
Высота : 400 пикселей
Соотношение сторон : 16:9
Частота кадров : 25,000 кадров/сек
Цветовое пространство : YUV
Субдискретизация насыщенности : 4:2:0
Битовая глубина : 8 бит
Тип развёртки : Прогрессивная
Метод сжатия : С потерями
Бит/(Пиксели*Кадры) : 0.241
Размер потока : 1,15 Гбайт (79%)
Библиотека кодирования : XviD 65
Аудио
Идентификатор : 1
Формат : AC-3
Формат/Информация : Audio Coding 3
Расширение режима : CM (complete main)
Параметр Endianness формата : Big
Идентификатор кодека : 2000
Продолжительность : 1 ч. 34 м.
Вид битрейта : Постоянный
Битрейт : 448 Кбит/сек
Каналы : 6 каналов
Расположение каналов : Front: L C R, Side: L R, LFE
Частота : 48,0 КГц
Битовая глубина : 16 бит
Метод сжатия : С потерями
Размер потока : 304 Мбайт (20%)
Выравнивание : Разделение по промежуткам
Продолжительность промежутка : 40 мс. (1,00 видеокадр)
Время предзагрузки промежутка : 500 мс.
Заголовок : Профессиональный (двухголосый, закадровый) Кинолюкс
Скриншоты
[reactorr.org].t68301.torrent
Торрент: Зарегистрирован [ 17-11-2014 23:55 ] · AA7C762714067BA3C122EDAF2CCB6FF3440AAC87

Скачать .torrent

Скачать

15 KB

Статус: проверено
Скачан: 2 раз
Размер: 1,45 GB
terms.php
[Профиль] [ЛС]
Показать сообщения:    
Ответить на тему

Текущее время: 24-Окт 03:22

Часовой пояс: UTC + 3



Вы не можете начинать темы
Вы не можете отвечать на сообщения
Вы не можете редактировать свои сообщения
Вы не можете удалять свои сообщения
Вы не можете голосовать в опросах
Вы не можете прикреплять файлы к сообщениям
Вы можете скачивать файлы