Последний поцелуй / Le Dernier baiser (Долорес Грассиан / Dolores Grassian) [1977, Франция, Бельгия, Драма, VHSRip] [Полная версия] MVO + Original Fre

Ответить на тему
Статистика раздачи
Размер:  1.47 GB   |    Зарегистрирован:  2 года 1 месяц   |    Скачан:  0 раз
Сидов:  17  [  0 KB/s  ]   Личеров:  3  [  0 KB/s  ]   Подробная статистика пиров
 
     
 
 
Автор
Сообщение


Последний поцелуй / Le Dernier baiser
(Полная версия)


Страна: Франция, Бельгия
Производство: A.M.S. Productions, Belstar Productions, Cinemagma
Жанр: Драма
Год выпуска: 1977
Продолжительность: 01:37:49
Перевод: Профессиональный (многоголосый закадровый)
Cубтитры: нет
Оригинальная аудиодорожка: французский

Режиссер: Долорес Грассиан / Dolores Grassian
В ролях: Анни Жирардо / Annie Girardot, Мария Паком / Maria Pacome, Бернар Фрессон / Bernard Fresson, Дагмар Мейниель / Dagmar Meyniel, Жак Анри / Jacques Rosny, Мари-Франс / Миньял Marie-France Mignal, Альбер Симоно / Albert Simono, Жан-Пьер Коффе / Jean-Pierre Coffe, Жан Кюртелен / Jean Curtelin
Описание: Таксистку Анни бросает любимый мужчина и она не знает, как ей жить дальше. В это время к ней в машину садится неизвестная, которая требует начать преследование её мужа, подозреваемого в неверности. Начинается погоня…

Доп. информация: Фильм шел в советском прокате в 1979 году. Предлагаемая версия фильма полная, но в основе перевода использован текст советского дубляжа.

Благодарность за рип: and70311448


Качество видео: VHSRip
Формат видео: AVI
Видео: 656x464 (1.41:1), 25 fps, XviD build 50 ~1876 kbps avg, 0.25 bit/pixel
Аудио 1: 48 kHz, MPEG Layer 3, 2 ch, ~128.00 kbps avg (Rus)
Аудио 2: 48 kHz, MPEG Layer 3, 2 ch, ~128.00 kbps avg (Fre)

MediaInfo

Complete name : Posledniy.Pozeluy.1977.Xvid.VHSrip.fenixclub.avi
Format : AVI
Format/Info : Audio Video Interleave
File size : 1.47 GiB
Duration : 1h 37mn
Overall bit rate : 2 148 Kbps
Writing application : VirtualDubMod 1.5.4.1 (build 2178/release)
Writing library : VirtualDubMod build 2178/release
Video
ID : 0
Format : MPEG-4 Visual
Format profile : Advanced Simple@L5
Format settings, BVOP : Yes
Format settings, QPel : No
Format settings, GMC : No warppoints
Format settings, Matrix : Custom
Codec ID : XVID
Codec ID/Hint : XviD
Duration : 1h 37mn
Bit rate : 1 878 Kbps
Width : 656 pixels
Height : 464 pixels
Display aspect ratio : 1.414
Frame rate : 25.000 fps
Color space : YUV
Chroma subsampling : 4:2:0
Bit depth : 8 bits
Scan type : Progressive
Compression mode : Lossy
Bits/(Pixel*Frame) : 0.247
Stream size : 1.28 GiB (87%)
Writing library : XviD 1.2.1 (UTC 2008-12-04)
Audio #1
ID : 1
Format : MPEG Audio
Format version : Version 1
Format profile : Layer 3
Mode : Joint stereo
Codec ID : 55
Codec ID/Hint : MP3
Duration : 1h 37mn
Bit rate mode : Constant
Bit rate : 128 Kbps
Channel(s) : 2 channels
Sampling rate : 48.0 KHz
Compression mode : Lossy
Stream size : 89.6 MiB (6%)
Alignment : Aligned on interleaves
Interleave, duration : 40 ms (1.00 video frame)
Interleave, preload duration : 504 ms
Audio #2
ID : 2
Format : MPEG Audio
Format version : Version 1
Format profile : Layer 3
Mode : Joint stereo
Mode extension : MS Stereo
Codec ID : 55
Codec ID/Hint : MP3
Duration : 1h 37mn
Bit rate mode : Constant
Bit rate : 128 Kbps
Channel(s) : 2 channels
Sampling rate : 48.0 KHz
Compression mode : Lossy
Stream size : 89.6 MiB (6%)
Alignment : Aligned on interleaves
Interleave, duration : 40 ms (1.00 video frame)
Interleave, preload duration : 504 ms

Скриншоты





 
Показать сообщения:    
Ответить на тему