Призраки Марса / Ghosts of Mars (Джон Карпентер / John Carpenter) [2001, США, ужасы, фантастика, боевик, BDRip-AVC] MVO + AVO (Живов) + Original (Eng) + Subs (Rus, Eng)

Ответить на тему
Статистика раздачи
Размер:  3,18 GB   |    Зарегистрирован:  2 года 10 месяцев   |    Скачан:  0 раз
Сидов:  7  [  0 KB/s  ]   Личеров:  3  [  0 KB/s  ]   Подробная статистика пиров
 
     
 
 
Автор Сообщение

Гость ®

Пол: Не указан

Создавать темы 15-Дек-2014 23:52

[Цитировать]

Призраки Марса / Ghosts of Mars«Forget The Rules. Abandon Your Fears. Save Your Soul»- Страна: США
Жанр: ужасы, фантастика, боевик
Год выпуска: 2001
Продолжительность: 01:38:07-Перевод №1: Профессиональный (многоголосный закадровый)
Перевод №2: Авторский (одноголосый, закадровый) - Живов
Оригинальная аудиодорожка: English
Cубтитры: Русские (полные+форсированные), English (full)
Навигация по главам: присутствует - 16 глав-Режиссер: Джон Карпентер / John Carpenter
В ролях: Наташа Хенстридж, Айс Кьюб, Джейсон Стэтхэм, Клеа ДюВалл, Пэм Гриер, Джоанна Кэссиди, Ричард Цетрон, Розмари Форсайт, Лайам Вейт, Дуан Дэвис-Описание: Планета Марс, 2176 год. На одну из дальних шахтерских станций на специальном поезде отправляется отряд полиции, чтобы забрать и доставить в город опасного преступника Уильямса, подозреваемого в убийстве и грабеже. Однако члены отряда еще даже не догадываются о той опасности, которую им приготовил Марс. Ведь отважным полицейским придется столкнуться не столько с людьми, сколько с таинственными и зловещими силами, живущими в самой планете.-
Download sample-Качество видео: BDRip-AVC | исх. BDRemux 1080p - thx: MaLLIeHbKa
Формат: MKV-Видео: 1 152x480 (2.40:1), 23.976 fps, H.264 ~3291 kbps avg, 0.242 bit/pixel
Аудио №1: 48.0 kHz, AC3 Dolby Digital, 3/2 (L,C,R,l,r) + LFE ch, ~448 kbps | Профессиональный (многоголосный закадровый)
Аудио №2: 48.0 kHz, AC3 Dolby Digital, 3/2 (L,C,R,l,r) + LFE ch, ~448 kbps | Авторский (одноголосый, закадровый) - Живов
Аудио №3: 48.0 kHz, AC3 Dolby Digital, 3/2 (L,C,R,l,r) + LFE ch, ~448 kbps | English-
MediaInfo
General
Unique ID : 170238739821294136245423368485666726368 (0x8012C9E662C196B58FC2F1D02AF6A1E0)
Complete name : D:\Фильмы\Рипы\Ghosts of Mars.2001.BDRip-AVC.eFK tRuAVC.mkv
Format : Matroska
Format version : Version 4 / Version 2
File size : 3.18 GiB
Duration : 1h 38mn
Overall bit rate : 4 638 Kbps
Movie name : Призраки Марса / Ghosts of Mars (2001) - Release for rutracker
Encoded date : UTC 2014-12-15 14:52:21
Writing application : mkvmerge v7.2.0 ('On Every Street') 64bit built on Sep 13 2014 15:52:10
Writing library : libebml v1.3.0 + libmatroska v1.4.1
DURATION : 01:32:08.898000000
NUMBER_OF_FRAMES : 827
NUMBER_OF_BYTES : 25761
_STATISTICS_WRITING_APP : mkvmerge v7.2.0 ('On Every Street') 64bit built on Sep 13 2014 15:52:10
_STATISTICS_WRITING_DATE_UTC : 2014-12-15 14:52:21
_STATISTICS_TAGS : BPS DURATION NUMBER_OF_FRAMES NUMBER_OF_BYTES
Attachment : Yes
Video
ID : 1
Format : AVC
Format/Info : Advanced Video Codec
Format profile : High@L4.1
Format settings, CABAC : Yes
Format settings, ReFrames : 14 frames
Codec ID : V_MPEG4/ISO/AVC
Duration : 1h 38mn
Bit rate : 3 202 Kbps
Width : 1 152 pixels
Height : 480 pixels
Display aspect ratio : 2.40:1
Frame rate mode : Constant
Frame rate : 23.976 fps
Color space : YUV
Chroma subsampling : 4:2:0
Bit depth : 8 bits
Scan type : Progressive
Bits/(Pixel*Frame) : 0.242
Stream size : 2.19 GiB (69%)
Title : eFK tRuAVC
Writing library : x264 core 142 r2491kMod 24e4fed
Encoding settings : cabac=1 / ref=14 / deblock=1:-3:-2 / analyse=0x3:0x133 / me=umh / subme=11 / psy=1 / fade_compensate=0.00 / psy_rd=1.05:0.05 / mixed_ref=1 / me_range=48 / chroma_me=1 / trellis=2 / 8x8dct=1 / cqm=0 / deadzone=21,11 / fast_pskip=0 / chroma_qp_offset=-3 / threads=12 / lookahead_threads=3 / sliced_threads=0 / nr=0 / decimate=1 / interlaced=0 / bluray_compat=0 / constrained_intra=0 / fgo=0 / bframes=16 / b_pyramid=2 / b_adapt=2 / b_bias=0 / direct=3 / weightb=1 / open_gop=0 / weightp=2 / keyint=250 / keyint_min=23 / scenecut=40 / intra_refresh=0 / rc_lookahead=60 / rc=crf / mbtree=0 / crf=19.9000 / qcomp=0.70 / qpmin=0 / qpmax=69 / qpstep=4 / vbv_maxrate=50000 / vbv_bufsize=62500 / crf_max=0.0 / nal_hrd=none / filler=0 / ip_ratio=1.25 / pb_ratio=1.15 / aq=3:1.05
Language : English
Default : Yes
Forced : No
Color primaries : BT.709
Transfer characteristics : BT.709
Matrix coefficients : BT.709
DURATION : 01:38:07.882000000
NUMBER_OF_FRAMES : 141168
NUMBER_OF_BYTES : 2422465001
_STATISTICS_WRITING_APP : mkvmerge v7.2.0 ('On Every Street') 64bit built on Sep 13 2014 15:52:10
_STATISTICS_WRITING_DATE_UTC : 2014-12-15 14:52:21
_STATISTICS_TAGS : BPS DURATION NUMBER_OF_FRAMES NUMBER_OF_BYTES
Audio #1
ID : 2
Format : AC-3
Format/Info : Audio Coding 3
Mode extension : CM (complete main)
Format settings, Endianness : Big
Codec ID : A_AC3
Duration : 1h 38mn
Bit rate mode : Constant
Bit rate : 448 Kbps
Channel count : 6 channels
Channel positions : Front: L C R, Side: L R, LFE
Sampling rate : 48.0 KHz
Bit depth : 16 bits
Compression mode : Lossy
Stream size : 314 MiB (10%)
Title : MVO
Language : Russian
Default : Yes
Forced : No
Audio #2
ID : 3
Format : AC-3
Format/Info : Audio Coding 3
Mode extension : CM (complete main)
Format settings, Endianness : Big
Codec ID : A_AC3
Duration : 1h 38mn
Bit rate mode : Constant
Bit rate : 448 Kbps
Channel count : 6 channels
Channel positions : Front: L C R, Side: L R, LFE
Sampling rate : 48.0 KHz
Bit depth : 16 bits
Compression mode : Lossy
Stream size : 314 MiB (10%)
Title : AVO (Zhivov)
Language : Russian
Default : No
Forced : No
Audio #3
ID : 4
Format : AC-3
Format/Info : Audio Coding 3
Mode extension : CM (complete main)
Format settings, Endianness : Big
Codec ID : A_AC3
Duration : 1h 38mn
Bit rate mode : Constant
Bit rate : 448 Kbps
Channel count : 6 channels
Channel positions : Front: L C R, Side: L R, LFE
Sampling rate : 48.0 KHz
Bit depth : 16 bits
Compression mode : Lossy
Stream size : 314 MiB (10%)
Language : German
Default : No
Forced : No
Text #1
ID : 5
Format : UTF-8
Codec ID : S_TEXT/UTF8
Codec ID/Info : UTF-8 Plain Text
Title : forced
Language : Russian
Default : Yes
Forced : No
Text #2
ID : 6
Format : UTF-8
Codec ID : S_TEXT/UTF8
Codec ID/Info : UTF-8 Plain Text
Title : full
Language : Russian
Default : No
Forced : No
Text #3
ID : 7
Format : UTF-8
Codec ID : S_TEXT/UTF8
Codec ID/Info : UTF-8 Plain Text
Title : full
Language : English
Default : No
Forced : No
Menu
00:00:00.000 : en:1
00:04:47.370 : en:2
00:12:47.642 : en:3
00:17:25.503 : en:4
00:23:34.830 : en:5
00:29:54.376 : en:6
00:35:22.370 : en:7
00:40:51.824 : en:8
00:46:03.135 : en:9
00:53:02.805 : en:10
00:59:08.086 : en:11
01:07:56.239 : en:12
01:11:26.449 : en:13
01:15:01.205 : en:14
01:19:59.336 : en:15
01:27:37.544 : en:16
x264 log
x264 [info]: frame I:899 Avg QP:15.64 size: 60418
x264 [info]: frame P:27330 Avg QP:17.66 size: 28777
x264 [info]: frame B:112939 Avg QP:18.76 size: 14005
x264 [info]: consecutive B-frames: 1.2% 1.6% 5.6% 14.1% 21.1% 34.7% 9.0% 4.5% 2.4% 1.5% 1.2% 0.9% 0.9% 0.7% 0.3% 0.3% 0.2%
x264 [info]: mb I I16..4: 6.9% 83.3% 9.8%
x264 [info]: mb P I16..4: 0.3% 14.9% 0.8% P16..4: 28.0% 34.6% 12.9% 1.3% 0.1% skip: 7.0%
x264 [info]: mb B I16..4: 0.0% 1.8% 0.1% B16..8: 37.3% 23.8% 5.1% direct: 6.3% skip:25.6% L0:46.0% L1:45.1% BI: 8.9%
x264 [info]: 8x8 transform intra:92.4% inter:57.3%
x264 [info]: direct mvs spatial:100.0% temporal:0.0%
x264 [info]: coded y,uvDC,uvAC intra: 95.4% 89.7% 75.9% inter: 34.8% 26.8% 6.3%
x264 [info]: i16 v,h,dc,p: 48% 12% 10% 31%
x264 [info]: i8 v,h,dc,ddl,ddr,vr,hd,vl,hu: 6% 6% 11% 11% 15% 13% 13% 12% 13%
x264 [info]: i4 v,h,dc,ddl,ddr,vr,hd,vl,hu: 7% 5% 7% 9% 16% 15% 14% 12% 13%
x264 [info]: i8c dc,h,v,p: 48% 20% 15% 17%
x264 [info]: Weighted P-Frames: Y:9.8% UV:6.8%
x264 [info]: ref P L0: 40.5% 8.1% 18.5% 7.3% 6.1% 4.3% 3.9% 2.1% 2.0% 1.6% 1.6% 1.3% 1.3% 1.2% 0.2% 0.0%
x264 [info]: ref B L0: 63.9% 13.9% 7.1% 3.8% 2.8% 2.3% 1.8% 1.1% 0.9% 0.9% 0.7% 0.4% 0.2%
x264 [info]: ref B L1: 90.4% 9.6%
x264 [info]: kb/s:3291.46
x264 [total]: encoded 141168 frames, 7.12 fps, 3291.46 kb/s, duration 5:30:32.21
Comparison
Source

Encode
[reactorr.org].t70238.torrent
Торрент: Зарегистрирован [ 15-12-2014 23:52 ] · 19812C75EF9F496143825A9CD464698D4D52B457

Скачать .torrent

Скачать

17 KB

Статус: проверено
Скачан: 0 раз
Размер: 3,18 GB
terms.php
 
Показать сообщения:    
Ответить на тему

Текущее время: 24-Окт 14:24

Часовой пояс: UTC + 3



Вы не можете начинать темы
Вы не можете отвечать на сообщения
Вы не можете редактировать свои сообщения
Вы не можете удалять свои сообщения
Вы не можете голосовать в опросах
Вы не можете прикреплять файлы к сообщениям
Вы можете скачивать файлы