Последний бриллиант / Le dernier diamant (2014) HDRip

Ответить на тему
Статистика раздачи
Размер:  1,46 GB   |    Зарегистрирован:  2 года 6 месяцев   |    Скачан:  1 раз
Сидов:  253  [  0 KB/s  ]   Личеров:  69  [  0 KB/s  ]   Подробная статистика пиров
 
     
 
 
Автор Сообщение

alligators ®

Пол: Не указан

Стаж: 4 года 10 месяцев

Сообщений: 1

Создавать темы 19-Дек-2014 10:59

[Цитировать]

-Последний бриллиант / Le dernier diamant (2014) HDRip- Год выпуска: 2014
Производство: Франция, Люксембург, Бельгия / Vertigo, Scope Pictures, Bidibul Productions
Жанр: Драма, Криминал
Режиссер: Эрик Барбье
Продюсер: Айса Джабри, Фарид Лахуасса, Лилиан Эш
Актеры: Иван Атталь, Беренис Бежо, Жан-Франсуа Стевенен, Антуан Баслер, Жак Списсер, Анни Корди, Мишель Израэль, Шарли Дюпон, Дэниэль Дени, Гене Бервутс
Описание фильма:
Бывший заключенный, втирается в доверие к дочери покойного эксперта-ювелира с целью выкрасть «Флорентийца», один из крупнейших в мире бриллиантов. Добившись своего и заменив драгоценность фальшивкой, мошенник передает бриллиант подельникам, которые тотчас же пытаются его убить. Потеряв в одночасье бриллиант и друзей-предателей, герой пытается удержать самое дорогое, что осталось в его жизни — полюбившую его девушку.

Дата мировой премьеры: 3 апреля 2014
Продолжительность: 01:48:37
Качество видео: HDRip
Перевод: Многоголосый закадровый, профессиональный официальный
Субтитры: Отсутствуют
Видео: Xvid, ~1721 kb/s, 720x304
Аудио: AC3 2.0, 192 kb/s
Сэмпл: Скачать
MediaInfo:
Общее
Полное имя                               : Poslednij.brilliant.2014.P.HDRip.nnm-club.avi
Формат                                   : AVI
Формат/Информация                        : Audio Video Interleave
Размер файла                             : 1,46 Гбайт
Продолжительность                        : 1 ч. 48 м.
Общий поток                              : 1923 Кбит/сек
Программа кодирования                    : VirtualDubMod 1.5.10.2 (build 2540/release)
Библиотека кодирования                   : VirtualDubMod build 2540/release
Видео
Идентификатор                            : 0
Формат                                   : MPEG-4 Visual
Профиль формата                          : Advanced Simple@L5
Параметр BVOP формата                    : 2
Параметр QPel формата                    : Нет
Параметр GMC формата                     : Без точки перехода
Параметр матрицы формата                 : Default (MPEG)
Идентификатор кодека                     : XVID
Идентификатор кодека/Подсказка           : XviD
Продолжительность                        : 1 ч. 48 м.
Битрейт                                  : 1721 Кбит/сек
Ширина                                   : 720 пикселей
Высота                                   : 304 пикселя
Соотношение сторон                       : 2,35:1
Частота кадров                           : 24,000 кадра/сек
Цветовое пространство                    : YUV
Субдискретизация насыщенности            : 4:2:0
Битовая глубина                          : 8 бит
Тип развёртки                            : Прогрессивная
Метод сжатия                             : С потерями
Бит/(Пиксели*Кадры)                      : 0.328
Размер потока                            : 1,31 Гбайт (90%)
Библиотека кодирования                   : XviD 1.2.1 (UTC 2008-12-04)
Аудио
Идентификатор                            : 1
Формат                                   : AC-3
Формат/Информация                        : Audio Coding 3
Расширение режима                        : CM (complete main)
Параметр Endianness формата              : Big
Идентификатор кодека                     : 2000
Продолжительность                        : 1 ч. 48 м.
Вид битрейта                             : Постоянный
Битрейт                                  : 192 Кбит/сек
Каналы                                   : 2 канала
Расположение каналов                     : Front: L R
Частота                                  : 48,0 КГц
Битовая глубина                          : 16 бит
Метод сжатия                             : С потерями
Размер потока                            : 149 Мбайт (10%)
Выравнивание                             : Разделение по промежуткам
Продолжительность промежутка             : 42  мс. (1,00 видеокадр)
Время предзагрузки промежутка            : 500  мс.
Скриншоты:
Дополнительные скриншоты:
Время раздачи: 24/7 (до 10 скачавших)Все релизы этого фильма в клубе
[reactorr.org].t70453.torrent
Торрент: Зарегистрирован [ 19-12-2014 10:59 ] · 0B4B2E82F58E038169151912F7B1F13443869123

Скачать .torrent

Скачать

15 KB

Статус: проверено
Скачан: 1 раз
Размер: 1,46 GB
terms.php
[Профиль] [ЛС]
Показать сообщения:    
Ответить на тему

Текущее время: 26-Июн 20:28

Часовой пояс: UTC + 3



Вы не можете начинать темы
Вы не можете отвечать на сообщения
Вы не можете редактировать свои сообщения
Вы не можете удалять свои сообщения
Вы не можете голосовать в опросах
Вы не можете прикреплять файлы к сообщениям
Вы можете скачивать файлы