Встречное расследование / Contre-enquete / Contre enquete / Counter Investigation (Франк Манкузо / Franck Mancuso) [2007 г., Франция, Криминал, драма, HDRip] Dub (UMP / GFS)

Ответить на тему
Статистика раздачи
Размер:  744 MB   |    Зарегистрирован:  2 года 7 месяцев   |    Скачан:  3 раза
Сидов:  7  [  0 KB/s  ]   Личеров:  2  [  0 KB/s  ]   Подробная статистика пиров
 
     
 
 
Автор Сообщение

sicuha ®

Пол: Не указан

Стаж: 4 года 4 месяца

Сообщений: 1

Создавать темы 22-Дек-2014 05:50

[Цитировать]

Встречное расследование / Contre-enquêteГод выпуска: 2007
Страна: Франция | |
Жанр: Криминальная драма
Продолжительность: 01:24:03
Перевод: Профессиональный (полное дублирование) - UMP/GFS
Субтитры: нет
Режиссер: Франк Манкузо / Franck Mancuso
Сценарий: Франк Манкузо / Franck Mancuso, Лоуренс Блок / Lawrence Block
Продюсер: Патрик Хименес / Patrick Gimenez, Ромейн Ле Гранд / Romain Le Grand, Франсуа Гуерра / François Guerrar, Эрик Юбер / Eric Hubert
Оператор: Жером Альмерас / Jérôme Alméras
Композитор: Кришна Леви / Krishna Levy
В ролях: Жан Дюжарден (Richard Malinowski), Лоран Люка (Daniel Eckmann), Агнес Бланшо (Claire Malinowski), Орельен Рекуан (Josse), Жак Франц (Michel Arnalde), Жан-Франсуа Гарро (Salinas), Жан-Пьер Кассель (Docteur Delmas), Александра Гонкалвес (Emilie Malinowski), Клодин Винсент (Catherine Courrieux), Каролин Сантини (Christiane Carlier), Мари Гийяр (Mathilde Josse), Гэбриел Манкусо (Gabriel Josse)
Дублёры: Александр Груздев (Richard Malinowski), Людмила Ильина (Claire Malinowski; Emilie Malinowski)-Бюджет: €7 600 000
Сборы в США: $11 846
Сборы в России: $139 491
Сборы в мире: $8 029 345
Мировая премьера: 10 февраля 2007
Релиз на DVD: 7 февраля 2008, «CP-Digital»-Описание: Вращающийся в высших кругах капитан полиции Ричард Малиновски имеет все, о чем можно только мечтать: у него успешная карьера, любимые жена и дочь - жизнь без проблем. Однажды, когда Ричард собирается провести свободное время со своей дочерью, раздается телефонный звонок и полицейскому приходится ехать по срочному заданию. Вернувшись, он находит свою дочь мертвой.- Рейтинг
kinopoisk.ru: 7.128 (1056)
imdb.com: 6.60 (1715)
-Качество: HDRip [BDRip 1080p -FHD]
Формат: AVI ///СОВМЕСТИМО С БЫТОВЫМИ ПЛЕЕРАМИ///
Размер : 1/3 DVD-R
Видео: 720x304 (2.37:1), 23.976 fps, XviD build 66 ~1036 kbps avg, 0.20 bit/pixel

//SAMPLE//
Аудио: 48 kHz, AC3 Dolby Digital, 2/0 (L,R) Surround Encoded ch, ~192 kbps - RUS - Dub [UMP/GFS]
Отдельно профессиональный (многоголосый, закадровый) здесь
MIКод:General
Complete name : H:\!Allfilms\Vstrechnoe.Rassledovanie.2007.XviD.HDRip.avi
Format : AVI
Format/Info : Audio Video Interleave
File size : 744 MiB
Duration : 1h 24mn
Overall bit rate : 1 238 Kbps
Movie name : Встречное расследование / Contre-enquete [2007] HDRip
Director : Юpист
Genre : Криминальная драма
Writing application : VirtualDubMod 1.5.10.3 | www.virtualdub-fr.org || (build 2550/release)
Writing library : VirtualDubMod build 2550/release
Copyright : tru
Video
ID : 0
Format : MPEG-4 Visual
Format profile : Advanced Simple@L5
Format settings, BVOP : 1
Format settings, QPel : No
Format settings, GMC : No warppoints
Format settings, Matrix : Custom
Codec ID : XVID
Codec ID/Hint : XviD
Duration : 1h 24mn
Bit rate : 1 036 Kbps
Width : 720 pixels
Height : 304 pixels
Display aspect ratio : 2.35:1
Frame rate : 23.976 fps
Color space : YUV
Chroma subsampling : 4:2:0
Bit depth : 8 bits
Scan type : Progressive
Compression mode : Lossy
Bits/(Pixel*Frame) : 0.197
Stream size : 623 MiB (84%)
Writing library : XviD 66
Audio
ID : 1
Format : AC-3
Format/Info : Audio Coding 3
Format profile : Dolby Digital
Mode extension : CM (complete main)
Format settings, Endianness : Big
Codec ID : 2000
Duration : 1h 24mn
Bit rate mode : Constant
Bit rate : 192 Kbps
Channel(s) : 2 channels
Channel positions : Front: L R
Sampling rate : 48.0 KHz
Bit depth : 16 bits
Compression mode : Lossy
Stream size : 115 MiB (16%)
Alignment : Split accross interleaves
Interleave, duration : 42 ms (1.00 video frame)
Interleave, preload duratio : 500 ms
Title : RUS - Dub [UMP/GFS]
-
Скриншоты
- -
[reactorr.org].t70653.torrent
Торрент: Зарегистрирован [ 22-12-2014 05:50 ] · 5E6C08474FFC8198B2FC37260A13AB2DFB9FF71B

Скачать .torrent

Скачать

15 KB

Статус: проверено
Скачан: 3 раз
Размер: 744 MB
terms.php
[Профиль] [ЛС]
Показать сообщения:    
Ответить на тему

Текущее время: 24-Июл 05:43

Часовой пояс: UTC + 3



Вы не можете начинать темы
Вы не можете отвечать на сообщения
Вы не можете редактировать свои сообщения
Вы не можете удалять свои сообщения
Вы не можете голосовать в опросах
Вы не можете прикреплять файлы к сообщениям
Вы можете скачивать файлы