Логово зверя / Haunt (2013) HDRip [H.264] [Line]

Ответить на тему
Статистика раздачи
Размер:  1,45 GB   |    Зарегистрирован:  2 года 11 месяцев   |    Скачан:  1 раз
Сидов:  136  [  0 KB/s  ]   Личеров:  28  [  0 KB/s  ]   Подробная статистика пиров
 
     
 
 
Автор Сообщение

????????1977 ®

Пол: Не указан

Стаж: 8 лет 2 месяца

Сообщений: 1

Создавать темы 22-Дек-2014 22:59

[Цитировать]

-Логово зверя / Haunt (2013) HDRip- Год выпуска: 2013
Производство: США / QED International, Revolver Picture Company
Жанр: Ужасы, Триллер-Режиссер: Мак Картер
Продюсер: Билл Блок, Пол Хэнсон, Джон Хеджман
Актеры: Лиана Либерато, Айони Скай, Джеки Уивер, Харрисон Джилбертсон, Даниэль Чачран, Джен Броберг, Келли Нунан, Алин Андраде, Касия Ковальчук, Себастьян Майкл Барр
Описание фильма:
Семья 18-ти летнего Эвана переезжает в новый дом, прошлые владельцы которого погибли при странных обстоятельствах. Единственная выжившая хозяйка дома — Джанет отказывается раскрывать тайну трагической гибели родных. Отправившись как-то раз ночью на прогулку, Эван встречает прекрасную девушку Саманту. Подростки начинают тесно общаться. Их общий интерес — таинственный дом семьи Ашер. Сэм рассказывает Эвану о том, что случилось с прошлыми владельцами дома. Герои решают выйти с призраками на прямой контакт. Но становится очевидно: не все тайны стоит разгадывать, ибо за ними кроется нечто совершенно ужасающее…-Перевод: Дублированный (центральный канал line)
Субтитры: Отсутствуют-
Дата мировой премьеры: 7 февраля 2014
Дата российской премьеры: 27 ноября 2014, «Люксор»-Продолжительность: 01:25:37
Качество видео: HDRip
Видео: AVC, 1024x426 (2.40:1), 24.000 fps, 1 982 Kbps (0.189 bit/pixel)
Аудио: AC-3, 48.0 KHz, 6 ch, 448 Kbps, CBR
Mediainfo:
Формат                                   : Matroska
Версия формата                           : Version 2
Размер файла                             : 1,45 Гбайт
Продолжительность                        : 1 ч. 25 м.
Общий поток                              : 2431 Кбит/сек
Дата кодирования                         : UTC 2014-12-22 12:34:03
Программа кодирования                    : mkvmerge v5.3.0 ('I could have danced') built on Feb  9 2012 10:38:07
Библиотека кодирования                   : libebml v1.2.3 + libmatroska v1.3.0
Attachment                               : Yes
Видео
Идентификатор                            : 1
Формат                                   : AVC
Формат/Информация                        : Advanced Video Codec
Профиль формата                          : [url=mailto:High@L4.1]High@L4.1[/url]
Параметр CABAC формата                   : Да
Параметр ReFrames формата                : 8 кадров
Идентификатор кодека                     : V_MPEG4/ISO/AVC
Продолжительность                        : 1 ч. 25 м.
Битрейт                                  : 1982 Кбит/сек
Ширина                                   : 1024 пикселя
Высота                                   : 426 пикселей
Соотношение сторон                       : 2,40:1
Режим частоты кадров                     : Постоянный
Частота кадров                           : 24,000 кадра/сек
Цветовое пространство                    : YUV
Субдискретизация насыщенности            : 4:2:0
Битовая глубина                          : 8 бит
Тип развёртки                            : Прогрессивная
Бит/(Пиксели*Кадры)                      : 0.189
Размер потока                            : 1,16 Гбайт (80%)
Библиотека кодирования                   : x264 core 142 r2431 ac76440
Настройки программы                      : cabac=1 / ref=8 / deblock=1:-1:-1 / analyse=0x3:0x133 / me=umh / subme=10 / psy=1 / psy_rd=1.00:0.00 / mixed_ref=1 / me_range=32 / chroma_me=1 / trellis=2 / 8x8dct=1 / cqm=0 / deadzone=21,11 / fast_pskip=1 / chroma_qp_offset=-2 / threads=12 / lookahead_threads=2 / sliced_threads=0 / nr=0 / decimate=1 / interlaced=0 / bluray_compat=0 / constrained_intra=0 / bframes=8 / b_pyramid=2 / b_adapt=2 / b_bias=0 / direct=3 / weightb=1 / open_gop=0 / weightp=2 / keyint=240 / keyint_min=24 / scenecut=40 / intra_refresh=0 / rc=2pass / mbtree=0 / bitrate=1982 / ratetol=1.0 / qcomp=0.60 / qpmin=0 / qpmax=69 / qpstep=4 / cplxblur=20.0 / qblur=0.5 / ip_ratio=1.40 / pb_ratio=1.30 / aq=1:1.00
Язык                                     : English
Default                                  : Да
Forced                                   : Нет
Аудио
Идентификатор                            : 2
Формат                                   : AC-3
Формат/Информация                        : Audio Coding 3
Расширение режима                        : CM (complete main)
Параметр Endianness формата              : Big
Идентификатор кодека                     : A_AC3
Продолжительность                        : 1 ч. 25 м.
Вид битрейта                             : Постоянный
Битрейт                                  : 448 Кбит/сек
Каналы                                   : 6 каналов
Расположение каналов                     : Front: L C R, Side: L R, LFE
Частота                                  : 48,0 КГц
Битовая глубина                          : 16 бит
Метод сжатия                             : С потерями
Размер потока                            : 274 Мбайт (18%)
Default                                  : Да
Forced                                   : Нет
Скриншоты:
Дополнительные скриншоты:
Время раздачи: с 12:00 до 18:30 до 3-х скачавших
[reactorr.org].t70699.torrent
Торрент: Зарегистрирован [ 22-12-2014 22:59 ] · 0E587CA4E84386BCA4DC34D89B23F67A8FDBFC87

Скачать .torrent

Скачать

15 KB

Статус: проверено
Скачан: 1 раз
Размер: 1,45 GB
terms.php
[Профиль] [ЛС]
Показать сообщения:    
Ответить на тему

Текущее время: 16-Дек 02:35

Часовой пояс: UTC + 3



Вы не можете начинать темы
Вы не можете отвечать на сообщения
Вы не можете редактировать свои сообщения
Вы не можете удалять свои сообщения
Вы не можете голосовать в опросах
Вы не можете прикреплять файлы к сообщениям
Вы можете скачивать файлы