Симона / S1m0ne (Эндрю Никкол / Andrew Niccol) [2002, США, Фантастика, фэнтези, драма, мелодрама, комедия, HDTVRip] MVO

Ответить на тему
Статистика раздачи
Размер:  1.47 GB   |    Зарегистрирован:  2 года   |    Скачан:  0 раз
Сидов:  6  [  0 KB/s  ]   Личеров:  1  [  0 KB/s  ]   Подробная статистика пиров
 
     
 
 
Автор
Сообщение

Симона / S1m0ne-«Как сделать звезду...» -Страна: США
Жанр: Фантастика, фэнтези, драма, мелодрама, комедия
Год выпуска: 2002
Продолжительность: 01:57:27-Перевод: Профессиональный (многоголосый закадровый)
Cубтитры: нет-Режиссер: Эндрю Никкол / Andrew Niccol-В ролях: Аль Пачино, Рэйчел Робертс, Кэтрин Кинер, Эван Рэйчел Вуд, Джей Мор, Вайнона Райдер, Прюитт Тэйлор Винс, Джейсон Шварцман, Дэниэл фон Барген, Элиас Котеас-Описание: Съемки фильма поставлены под угрозу срыва, когда актриса, предполагавшаяся на главную роль, отказывается сниматься. Режиссер решает заменить ее цифровой актрисой Симоной, созданной с помощью компьютера.
Однако все принимают искусственную девушку за настоящую. На волне внезапного успеха Симоны режиссер не осмеливается раскрыть свой обман ни окружающим,.. ни самому себе.-
Рейтинг MPAA "PG-13": Детям до 13 лет просмотр не желателен-Качество видео: HDTVRip
Формат видео: AVI
Видео: 720x304 (2.37:1), 23.976 fps, ~1393 kbps avg, 0.27 bit/pixel
Аудио: 48 kHz, AC3 Dolby Digital, 3/2 (L,C,R,l,r) + LFE ch, ~384 kbps

Скриншоты

Исходник HDTV 1080p

http://reactorr.org/viewtopic.php?t=4285909

MediaInfo

General
Complete name : D:\S1m0ne.2002.HDTVRip.avi
Format : AVI
Format/Info : Audio Video Interleave
File size : 1.47 GiB
Duration : 1h 57mn
Overall bit rate : 1 787 Kbps
Writing application : VirtualDubMod 1.5.10.3 | www.virtualdub-fr.org || (build 2550/release)
Writing library : VirtualDubMod build 2550/release
Video
ID : 0
Format : MPEG-4 Visual
Format profile : Advanced Simple@L5
Format settings, BVOP : 1
Format settings, QPel : No
Format settings, GMC : No warppoints
Format settings, Matrix : Default (MPEG)
Codec ID : XVID
Codec ID/Hint : XviD
Duration : 1h 57mn
Bit rate : 1 394 Kbps
Width : 720 pixels
Height : 304 pixels
Display aspect ratio : 2.35:1
Frame rate : 23.976 fps
Color space : YUV
Chroma subsampling : 4:2:0
Bit depth : 8 bits
Scan type : Progressive
Compression mode : Lossy
Bits/(Pixel*Frame) : 0.266
Stream size : 1.14 GiB (78%)
Writing library : XviD 1.2.1 (UTC 2008-12-04)
Audio
ID : 1
Format : AC-3
Format/Info : Audio Coding 3
Mode extension : CM (complete main)
Format settings, Endianness : Big
Codec ID : 2000
Duration : 1h 57mn
Bit rate mode : Constant
Bit rate : 384 Kbps
Channel(s) : 6 channels
Channel positions : Front: L C R, Side: L R, LFE
Sampling rate : 48.0 KHz
Bit depth : 16 bits
Compression mode : Lossy
Stream size : 323 MiB (21%)
Alignment : Split accross interleaves
Interleave, duration : 42 ms (1.00 video frame)
Interleave, preload duration : 500 ms
 
Показать сообщения:    
Ответить на тему