Далекая синяя высь / Повесть о B-29 «Суперфортресс» / The Wild Blue Yonder (Аллан Дуон / Allan Dwan) [1951, США, Драма, военный, DVDRip] AVO (Ю. Живов)

Ответить на тему
Статистика раздачи
Размер:  1,42 GB   |    Зарегистрирован:  2 года 6 месяцев   |    Скачан:  1 раз
Сидов:  16  [  0 KB/s  ]   Личеров:  1  [  0 KB/s  ]   Подробная статистика пиров
 
     
 
 
Автор Сообщение

ke_75 ®

Пол: Не указан

Стаж: 5 лет 9 месяцев

Сообщений: 1

Создавать темы 06-Янв-2015 06:42

[Цитировать]

Далекая синяя высь (Повесть о B-29 «Суперфортресс») / The Wild Blue Yonder
Страна: США
Жанр: Драма, военный
Год выпуска: 1951
Продолжительность: 01:25:10
Доп. информация о версии: немецкая версия фильма
Перевод: Авторский (одноголосый закадровый) Ю. Живов
Cубтитры: нет
Режиссер: Аллан Дуон / Allan Dwan
В ролях: Уенделл Кори, Вера Ралстон, Форрест Такер, Фил Харрис, Уолтер Бреннан, Уильям Чинг, Рут Доннелли, Гарри Кэри мл., Пенни Эдвардс, Уолли Кассел.
Описание: В 1943 году капитан Гарольд «Cal» Калверт (Уэнделл Кори) отправляется на курс в Смоки-Хилл, штат Канзас, чтобы освоить новый бомбардировщик Boeing B-29 Superfortress. После обучения, пилоты и B-29 готовы к бою. Они перелетают на базу в Китае, откуда будут совершать налеты на Японию. После перевода группы на Гуам, генерал Кертис Е. LeMay (Уильям Уитни), новый командир, изменяет тактику, требуя проводить бомбардировки на низких высотах, для повышения точности и нанесения большего ущерба. Капитан Гарольд Калверт пройдет через всю войну, обретет друзей и любовь.
Доп. информация: DVDRip by alf62
Большое СПАСИБО за работу над фильмом целому коллективу:
- за озвучивание: Ю. Живову;
- инициаторам организации перевода: alinto, jasenka, Riderman, умелец54, Drenkens, Arias, ilgiz01, Cybernn, chontvari, ZeDOK;
- за наложение чистого голоса на оригинальную дорогу: Нордер;
- за первоисточник DVD: alinto: http://reactorr.org/viewtopic.php?t=4906578
Перевод: Авторский одноголосый Ю. Живов

Качество видео: DVDRip
Формат видео: AVI
Видео: 704x528 (1.33:1), 25 fps, DivX, 2189 kbps avg, 0.24 bit/pixel
Аудио: 48 kHz, AC3 Dolby Digital, 2/0 (L,R) ch, ~192.00 kbps avg
MediaInfo
Dalekaja.sinjaja.vys.1951.DivX.DVDRip.alf62.avi
Формат : AVI
Формат/Информация : Audio Video Interleave
Размер файла : 1,42 Гбайт
Продолжительность : 1 ч. 25 м.
Общий поток : 2390 Кбит/сек
Программа кодирования : VirtualDubMod 1.5.10.3 | www.virtualdub-fr.org || (build 2550/release)
Библиотека кодирования : VirtualDubMod build 2550/release
Видео
Идентификатор : 0
Формат : MPEG-4 Visual
Профиль формата : Advanced Simple@L5
Параметр BVOP формата : 2
Параметр QPel формата : Нет
Параметр GMC формата : Без точки перехода
Параметр матрицы формата : Default (MPEG)
Идентификатор кодека : DX50
Идентификатор кодека/Подсказка : DivX 5
Продолжительность : 1 ч. 25 м.
Битрейт : 2189 Кбит/сек
Ширина : 704 пикселя
Высота : 528 пикселей
Соотношение сторон : 4:3
Частота кадров : 25,000 кадров/сек
Цветовое пространство : YUV
Субдискретизация насыщенности : 4:2:0
Битовая глубина : 8 бит
Тип развёртки : Прогрессивная
Метод сжатия : С потерями
Бит/(Пиксели*Кадры) : 0.236
Размер потока : 1,30 Гбайт (92%)
Библиотека кодирования : XviD 73
Аудио
Идентификатор : 1
Формат : AC-3
Формат/Информация : Audio Coding 3
Расширение режима : CM (complete main)
Параметр Endianness формата : Big
Идентификатор кодека : 2000
Продолжительность : 1 ч. 25 м.
Вид битрейта : Постоянный
Битрейт : 192 Кбит/сек
Каналы : 2 канала
Расположение каналов : Front: L R
Частота : 48,0 КГц
Битовая глубина : 16 бит
Метод сжатия : С потерями
Размер потока : 117 Мбайт (8%)
Выравнивание : Разделение по промежуткам
Продолжительность промежутка : 40 мс. (1,00 видеокадр)
Время предзагрузки промежутка : 500 мс.
Скриншот c названием фильма
Скриншоты
[reactorr.org].t71297.torrent
Торрент: Зарегистрирован [ 06-01-2015 06:42 ] · 2FD02C6FDE27F85C8BE46B11D4541C52ECB31ABB

Скачать .torrent

Скачать

15 KB

Статус: проверено
Скачан: 1 раз
Размер: 1,42 GB
terms.php
[Профиль] [ЛС]
Показать сообщения:    
Ответить на тему

Текущее время: 24-Июл 05:45

Часовой пояс: UTC + 3



Вы не можете начинать темы
Вы не можете отвечать на сообщения
Вы не можете редактировать свои сообщения
Вы не можете удалять свои сообщения
Вы не можете голосовать в опросах
Вы не можете прикреплять файлы к сообщениям
Вы можете скачивать файлы