Романс за крону / Romance za korunu (Збынек Бриних / Zbynek Brynych) [1975, Чехословакия, мюзикл, мелодрама, VHSRip] Dub (Ленфильм)

Ответить на тему
Статистика раздачи
Размер:  1,37 GB   |    Зарегистрирован:  2 года 2 месяца   |    Скачан:  1 раз
Сидов:  6  [  0 KB/s  ]   Личеров:  1  [  0 KB/s  ]   Подробная статистика пиров
 
     
 
 
Автор Сообщение

Demik ®

Пол: Не указан

Стаж: 2 года 10 месяцев

Сообщений: 1

Создавать темы 06-Янв-2015 06:51

[Цитировать]

Романс за крону / Romance za korunu
Страна: Чехословакия
Жанр: мюзикл, мелодрама
Год выпуска: 1975
Продолжительность: 01:17:36
Перевод: Профессиональный (дублированный) Ленфильм
Cубтитры: нет
Оригинальная аудиодорожка: нет
Режиссер: Збынек Бриних / Zbynek Brynych
В ролях: Мирослава Шафранкова / Miroslava Šafránková, Эрик Пардус / Erik Pardus, Томаш Штенгл / Tomas Stengl, Франтишек Ганус / Frantisek Hanus, Карел Аугуста / Karel Augusta, Петр Нарожны / Petr Nárožný, Валерия Хмелова / Valerie Chmelová , Готтлиб Оскар / Gottlieb Oscar, Иржи Брабэц / Jirí Brabec, Франтишек Чех / Frantisek Cech, Рудольф Кортес / Rudolf Cortés, Карел Готт / Karel Gott, Дана Гомолова / Dana Homolová, Владимир Грабанек / Vladimír Hrabánek, Роман Хайек / Roman Hájek, Рената Маскова / Renata Masková, Шарка Новакова / Sárka Nováková, Людмила Роубикова / Ludmila Roubíková, Милан Ружичка / Milan Ruzicka, Феликс Словачек / Felix Slovácek, Карел Свобода / Karel Svoboda, Надя Урбанкова / Naďa Urbánková, Гелена Вондрачкова / Helena Vondrácková
Описание: Музыкальный фильм с участием звезд чехословацкой эстрады Карела Готта и Хелены Вондрачковой.
Мальчик приглашает девочку на свидание. Началось оно неудачно, но потом стали происходить неожиданные события…

Доп. информация:
Релиз
КАК ВСЕГДА БОЛЬШОЕ СПАСИБО:
Рип and70311448
Композитор: Карел Свобода / Karel Svoboda
Производство: Filmové studio Barrandov
Дубляж: Ленфильм
Режиссер дубляжа: Александр Пашовкин
Роли дублируют:
Александр Липов, Елена Ставрогина, Юрий Соловьев, Людмила Старицына, Людмила Безуглая, Игорь Ефимов, Борис Аракелов, Людмила Ксенофонтова, Станислав Соколов, Лев Жуков

Сэмпл: http://multi-up.com/1024642
Качество видео: VHSRip
Формат видео: AVI
Видео: XviD, 2387 kb/sec, 640х480 (4:3), 25 fps, 0.311 bit/pixel
Аудио: MPEG#1, Layer 3, 128 kb/sec, 2 ch, 48,0 khz - Советский дубляж
MediaInfo
Общее
Полное имя : C:\Users\Екатерина\Desktop\Раздачи\Romans.Za.Kronu\Romans.Za.Kronu.1975.Xvid.VHSrip.fenixclub..avi
Формат : AVI
Формат/Информация : Audio Video Interleave
Размер файла : 1,37 Гбайт
Продолжительность : 1 ч. 17 м.
Общий поток : 2522 Кбит/сек
Программа кодирования : VirtualDubMod 1.5.4.1 (build 2178/release)
Библиотека кодирования : VirtualDubMod build 2178/release
Видео
Идентификатор : 0
Формат : MPEG-4 Visual
Профиль формата : Advanced Simple@L5
Параметр BVOP формата : 1
Параметр QPel формата : Нет
Параметр GMC формата : Без точки перехода
Параметр матрицы формата : Выборочная
Идентификатор кодека : XVID
Идентификатор кодека/Подсказка : XviD
Продолжительность : 1 ч. 17 м.
Битрейт : 2387 Кбит/сек
Ширина : 640 пикселей
Высота : 480 пикселей
Соотношение сторон : 4:3
Частота кадров : 25,000 кадров/сек
Цветовое пространство : YUV
Субдискретизация насыщенности : 4:2:0
Битовая глубина : 8 бит
Тип развёртки : Прогрессивная
Метод сжатия : С потерями
Бит/(Пиксели*Кадры) : 0.311
Размер потока : 1,29 Гбайт (95%)
Библиотека кодирования : XviD 1.2.1 (UTC 2008-12-04)
Аудио
Идентификатор : 1
Формат : MPEG Audio
Версия формата : Version 1
Профиль формата : Layer 3
Режим : Joint stereo
Идентификатор кодека : 55
Идентификатор кодека/Подсказка : MP3
Продолжительность : 1 ч. 17 м.
Вид битрейта : Постоянный
Битрейт : 128 Кбит/сек
Каналы : 2 канала
Частота : 48,0 КГц
Метод сжатия : С потерями
Задержка видео : 120 мс.
Размер потока : 71,1 Мбайт (5%)
Выравнивание : Соединение по промежуткам
Продолжительность промежутка : 80 мс. (2,00 видеокадра)
Время предзагрузки промежутка : 504 мс.
Скриншоты
[reactorr.org].t71320.torrent
Торрент: Зарегистрирован [ 06-01-2015 06:51 ] · 5DA61F1D0E0C8A25B3A5EC1526756A9CC91001F8

Скачать .torrent

Скачать

14 KB

Статус: проверено
Скачан: 1 раз
Размер: 1,37 GB
terms.php
[Профиль] [ЛС]
Показать сообщения:    
Ответить на тему

Текущее время: 25-Мар 18:45

Часовой пояс: UTC + 3



Вы не можете начинать темы
Вы не можете отвечать на сообщения
Вы не можете редактировать свои сообщения
Вы не можете удалять свои сообщения
Вы не можете голосовать в опросах
Вы не можете прикреплять файлы к сообщениям
Вы можете скачивать файлы