Лось на Рождество / Рождественский гимн / Es ist ein Elch entsprungen (Бен Вербонг / Ben Verbong) [2005, Германия, комедия, семейный, DVB] MVO (Игмар)

Ответить на тему
Статистика раздачи
Размер:  1,8 GB   |    Зарегистрирован:  2 года 5 месяцев   |    Скачан:  0 раз

Полного источника не было: 2 года 5 месяцев

Личеров:  4  [  0 KB/s  ]   Подробная статистика пиров
 
     
 
 
Автор Сообщение

Destroyer777 ®

Пол: Не указан

Стаж: 7 лет 2 месяца

Сообщений: 1

Создавать темы 06-Янв-2015 06:51

[Цитировать]

Лось на Рождество / Рождественский гимн / Es ist ein Elch entsprungen- Страна: Германия
Жанр: комедия, семейный
Год выпуска: 2005
Продолжительность: 01:25:23
Перевод: Профессиональный (многоголосый закадровый) - Компания "Игмар" / Канал "Gulli"
Cубтитры: нет-Режиссер: Бен Вербонг / Ben Verbong
В ролях: Марио Адорф, Армин Роде, Аня Клинг, Рабан Билинг, Сара Бек, Юрген Таррах, Моника Хансен, Кристина Нойбауэр, Йоахим Биссмайер, Гилберт фон Золерн...- | Релиз: -Описание: Накануне Рождества на крышу дома Вагнеров с неба упал лось. Каково же было удивление детей, когда летающий лось представился: "Муз, мистер Муз. Семейство оленевых". Оказалось, что лось вез на санях своего хозяина Санта-Клауса и не вписался в поворот. Рождество не наступит, если лось вовремя не вернется к Санте...-Семпл: http://sendfile.su/1069955-Качество видео: DVB (Канал "Gulli")
Формат видео: MPG
Видео: 720x576 (4:3) @ 768x576, 25.000 fps, MPEG-2 Video, ~2711 Kbps, 0.262 bits/pixel
Аудио: Русский, 48.0 KHz, MPEG-1 Audio layer 2, 2 ch, 192 Kbps
MediaInfo
General
Complete name : Es ist ein Elch entsprungen 2005 Gulli MVO Igmar.mpg
Format : MPEG-PS
File size : 1.80 GiB
Duration : 1h 27mn
Overall bit rate mode : Variable
Overall bit rate : 2 962 Kbps
Video
ID : 224 (0xE0)
Format : MPEG Video
Format version : Version 2
Format profile : Main@Main
Format settings, BVOP : Yes
Format settings, Matrix : Custom
Format settings, GOP : Variable
Format settings, picture structure : Frame
Duration : 1h 27mn
Bit rate mode : Variable
Bit rate : 2 711 Kbps
Maximum bit rate : 15.0 Mbps
Width : 720 pixels
Height : 576 pixels
Display aspect ratio : 4:3
Frame rate : 25.000 fps
Standard : PAL
Color space : YUV
Chroma subsampling : 4:2:0
Bit depth : 8 bits
Scan type : Interlaced
Scan order : Top Field First
Compression mode : Lossy
Bits/(Pixel*Frame) : 0.262
Time code of first frame : 00:00:00:00
Time code source : Group of pictures header
GOP, Open/Closed : Open
Stream size : 1.65 GiB (92%)
GOP, Open/Closed of first frame : Closed
Audio
ID : 192 (0xC0)
Format : MPEG Audio
Format version : Version 1
Format profile : Layer 2
Duration : 1h 27mn
Bit rate mode : Constant
Bit rate : 192 Kbps
Channel(s) : 2 channels
Sampling rate : 48.0 KHz
Compression mode : Lossy
Stream size : 120 MiB (6%)
Скриншоты
[reactorr.org].t71322.torrent
Торрент: Зарегистрирован [ 06-01-2015 06:51 ] · F44301349B3EAC230DCED12BC2F495D06426B247

Скачать .torrent

Скачать

19 KB

Статус: проверено
Скачан: 0 раз
Размер: 1,8 GB
terms.php
[Профиль] [ЛС]
Показать сообщения:    
Ответить на тему

Текущее время: 23-Июн 20:26

Часовой пояс: UTC + 3



Вы не можете начинать темы
Вы не можете отвечать на сообщения
Вы не можете редактировать свои сообщения
Вы не можете удалять свои сообщения
Вы не можете голосовать в опросах
Вы не можете прикреплять файлы к сообщениям
Вы можете скачивать файлы