Преступления Моды / Crimes Of Fashion (Стюарт Гиллард / Stuart Gillard) [2004, США, Комедия, DVDRip] MVO (Disney) + Sub Rus

Ответить на тему
Статистика раздачи
Размер:  735 MB   |    Зарегистрирован:  2 года 7 месяцев   |    Скачан:  0 раз
Сидов:  8  [  0 KB/s  ]   Личеров:  1  [  0 KB/s  ]   Подробная статистика пиров
 
     
 
 
Автор Сообщение

????????? ®

Пол: Не указан

Стаж: 7 лет 5 месяцев

Сообщений: 1

Создавать темы 07-Янв-2015 06:52

[Цитировать]

Преступления Моды / Crimes Of Fashion
Страна: США
Жанр: Комедия
Год выпуска: 2004
Продолжительность: 01:29:50
Перевод: Профессиональный (многоголосый закадровый) Disney
Cубтитры: русские на неозвученный кусок
Оригинальная аудиодорожка: нет
Режиссер: Стюарт Гиллард / Stuart Gillard
В ролях: Кейли Куоко, Доминик Кьянезе, Пэт Келли, Меган Фокс, Джилл Моррисон, Серена Ли, Чак Шамата
Описание: Брук Тейлор (Кейли Куоко) учится в школе моды в надежде стать модельером. Ее дед босс мафии (Доминик Чианиз), которого она никогда не видела умирает и оставляет ей имущество и право собственности на семейный бизнес, который пытаются сделать законным. Новый студент в школе (Пэт Келли) тайный агент ФБР которого прислали чтобы положить конец преступности.
Доп. информация: Видеоряд спЁрт из этой http://reactorr.org/viewtopic.php?t=3149503 раздачи. На канале Disney вырезали небольшой кусок в пару фраз - он переведен субтитрами из той же раздачи.
Сэмпл: http://multi-up.com/1024808
Качество видео: DVDRip
Формат видео: AVI
Видео: MPEG4, XviD, 624x352 (16/9), 23.976 fps, 942 Kbps (0.179 bit/pixel)
Аудио: AC-3, 48.0 KHz, 2 ch, 192 Kbps, CBR
MediaInfo
Общее
Полное имя : K:\Преступления моды.avi
Формат : AVI
Формат/Информация : Audio Video Interleave
Размер файла : 735 Мбайт
Продолжительность : 1 ч. 29 м.
Общий поток : 1144 Кбит/сек
Название фильма : Преступления моды / Crimes Of Fashion (2004)
Программа кодирования : VirtualDubMod 1.5.10.2 (build 2540/release)
Библиотека кодирования : VirtualDubMod build 2540/release
Видео
Идентификатор : 0
Формат : MPEG-4 Visual
Профиль формата : Simple@L3
Параметр BVOP формата : Нет
Параметр QPel формата : Нет
Параметр GMC формата : Без точки перехода
Параметр матрицы формата : Default (H.263)
Идентификатор кодека : XVID
Идентификатор кодека/Подсказка : XviD
Продолжительность : 1 ч. 29 м.
Битрейт : 942 Кбит/сек
Ширина : 624 пикселя
Высота : 352 пикселя
Соотношение сторон : 16:9
Частота кадров : 23,976 кадра/сек
Цветовое пространство : YUV
Субдискретизация насыщенности : 4:2:0
Битовая глубина : 8 бит
Тип развёртки : Прогрессивная
Метод сжатия : С потерями
Бит/(Пиксели*Кадры) : 0.179
Размер потока : 605 Мбайт (82%)
Библиотека кодирования : XviD 1.2.1 (UTC 2008-12-04)
Аудио
Идентификатор : 1
Формат : AC-3
Формат/Информация : Audio Coding 3
Расширение режима : CM (complete main)
Параметр Endianness формата : Big
Идентификатор кодека : 2000
Продолжительность : 1 ч. 29 м.
Вид битрейта : Постоянный
Битрейт : 192 Кбит/сек
Каналы : 2 канала
Расположение каналов : Front: L R
Частота : 48,0 КГц
Битовая глубина : 16 бит
Метод сжатия : С потерями
Размер потока : 123 Мбайт (17%)
Выравнивание : Разделение по промежуткам
Продолжительность промежутка : 42 мс. (1,00 видеокадр)
Время предзагрузки промежутка : 500 мс.
Заголовок : Профессиональный (многоголосый закадровый) Disney
Скриншоты
[reactorr.org].t71362.torrent
Торрент: Зарегистрирован [ 07-01-2015 06:52 ] · F96551DE63E4085EEF583580F2CA976E488896DD

Скачать .torrent

Скачать

15 KB

Статус: проверено
Скачан: 0 раз
Размер: 735 MB
terms.php
[Профиль] [ЛС]
Показать сообщения:    
Ответить на тему

Текущее время: 22-Авг 19:35

Часовой пояс: UTC + 3



Вы не можете начинать темы
Вы не можете отвечать на сообщения
Вы не можете редактировать свои сообщения
Вы не можете удалять свои сообщения
Вы не можете голосовать в опросах
Вы не можете прикреплять файлы к сообщениям
Вы можете скачивать файлы