Самурай: Путь воина / Samurai: Musashi Miyamoto (Хироси Инагаки / Hiroshi Inagaki) [1954, Япония, боевик, драма, приключения, биография, DVDRip] MVO

Ответить на тему
Статистика раздачи
Размер:  1,46 GB   |    Зарегистрирован:  2 года 11 месяцев   |    Скачан:  1 раз
Сидов:  12  [  0 KB/s  ]   Подробная статистика пиров
 
     
 
 
Автор Сообщение

???????? ®

Пол: Не указан

Стаж: 6 лет 1 месяц

Сообщений: 1

Создавать темы 07-Янв-2015 06:53

[Цитировать]

Самурай: Путь воина / Samurai: Musashi Miyamoto- -Страна: Япония
Жанр: боевик, драма, приключения, биография
Год выпуска: 1954
Продолжительность: 01:33:34-Перевод: Профессиональный (многоголосый закадровый)-Cубтитры: нет
Оригинальная аудиодорожка: нет
Режиссер: Хироси Инагаки / Hiroshi Inagaki
В ролях: Тосиро Мифунэ, Рэнтаро Микуни, Куроэмон Оноэ, Каору Ятигуса, Марико Окада, Мицуко Мито, Эйко Миёси, Акихико Хирата, Кусуо Абе, Эйтаро Одзава...
Описание: Начало зрелищного сказания, впечатляющий рассказ о юности будущего героя. Примкнув к великой армии, Миямото получает боевое крещение в великой битве при Секигахара, но вскоре вновь становится непредсказуемым одиночкой, чей буйный нрав вселяет страх в каждого встречного. Лишь мудрому буддийскому монаху удается превратить жестокого ронина Мусаси в отважного самурая на службе у сил добра. Отныне никто не сравнится с ним в боевой доблести и чистоте духа.
Релиз от -
Сэмпл: http://multi-up.com/1024758
Качество видео: DVDRip
Формат видео: AVI
Видео: MPEG-4 Visual at 1837 Кбит/сек; 704 x 544 (1.294) at 23.976 fps
Аудио: AC-3 at 384 Кбит/сек; 6 каналов, 48,0 КГц
Автор -
MediaInfo
Общее
Полное имя : D:\Фильмы\Азиатские\Самурай 1\Samurai.Musashi Miyamoto.1954.DVDRip.XviD.1400MB. rip by [Assassin's Creed].avi
Формат : AVI
Формат/Информация : Audio Video Interleave
Размер файла : 1,46 Гбайт
Продолжительность : 1 ч. 33 м.
Общий поток : 2231 Кбит/сек
Программа кодирования : VirtualDubMod 1.5.10.3 | www.virtualdub-fr.org || (build 2550/release)
Библиотека кодирования : VirtualDubMod build 2550/release
Видео
Идентификатор : 0
Формат : MPEG-4 Visual
Профиль формата : Advanced Simple@L5
Параметр BVOP формата : 1
Параметр QPel формата : Нет
Параметр GMC формата : Без точки перехода
Параметр матрицы формата : Default (MPEG)
Идентификатор кодека : XVID
Идентификатор кодека/Подсказка : XviD
Продолжительность : 1 ч. 33 м.
Битрейт : 1837 Кбит/сек
Ширина : 704 пикселя
Высота : 544 пикселя
Соотношение сторон : 1,294
Частота кадров : 23,976 кадра/сек
Цветовое пространство : YUV
Субдискретизация насыщенности : 4:2:0
Битовая глубина : 8 бит
Тип развёртки : Прогрессивная
Метод сжатия : С потерями
Бит/(Пиксели*Кадры) : 0.200
Размер потока : 1,20 Гбайт (82%)
Библиотека кодирования : XviD 1.2.1 (UTC 2008-12-04)
Аудио
Идентификатор : 1
Формат : AC-3
Формат/Информация : Audio Coding 3
Расширение режима : CM (complete main)
Параметр Endianness формата : Big
Идентификатор кодека : 2000
Продолжительность : 1 ч. 33 м.
Вид битрейта : Постоянный
Битрейт : 384 Кбит/сек
Каналы : 6 каналов
Расположение каналов : Front: L C R, Side: L R, LFE
Частота : 48,0 КГц
Битовая глубина : 16 бит
Метод сжатия : С потерями
Размер потока : 257 Мбайт (17%)
Выравнивание : Разделение по промежуткам
Продолжительность промежутка : 42 мс. (1,00 видеокадр)
Время предзагрузки промежутка : 500 мс.
Скриншот c названием фильма
Скриншоты
[reactorr.org].t71364.torrent
Торрент: Зарегистрирован [ 07-01-2015 06:53 ] · F8A743D1E16769C1455E39645520A56C0BD880E3

Скачать .torrent

Скачать

15 KB

Статус: проверено
Скачан: 1 раз
Размер: 1,46 GB
terms.php
[Профиль] [ЛС]
Показать сообщения:    
Ответить на тему

Текущее время: 15-Дек 20:57

Часовой пояс: UTC + 3



Вы не можете начинать темы
Вы не можете отвечать на сообщения
Вы не можете редактировать свои сообщения
Вы не можете удалять свои сообщения
Вы не можете голосовать в опросах
Вы не можете прикреплять файлы к сообщениям
Вы можете скачивать файлы