Жена хорошего адвоката / A Good Lawyer's Wife / Baramnan gajok (Лим Сан Су / Im Sang Soo) [2003, Южная Корея, драма, эротика, DVDRip] VO [mi24]

Ответить на тему
Статистика раздачи
Размер:  749 MB   |    Зарегистрирован:  2 года 5 месяцев   |    Скачан:  5 раз
Сидов:  28  [  0 KB/s  ]   Личеров:  3  [  0 KB/s  ]   Подробная статистика пиров
 
     
 
 
Автор Сообщение

kalabaha ®

Пол: Не указан

Стаж: 7 лет 9 месяцев

Сообщений: 1

Создавать темы 07-Янв-2015 18:55

[Цитировать]

Жена хорошего адвоката / A Good Lawyer's Wife / Baramnan gajok- -Страна: Южная Корея
Жанр: драма, эротика
Год выпуска: 2003
Продолжительность: 01:46:45-Перевод: Одноголосый закадровый [mi24]-Cубтитры: нет
Оригинальная аудиодорожка: нет
Режиссер: Лим Сан Су / Im Sang Soo
В ролях: Мун Со Ри, Ким Ин Мун, Юн Ё Чжон, Пон Тхэ Гю, Хван Чжон Мин, Ким Ё Чжин, Ли Чхон Хи, Сон Чжи Ру
Описание: Идеальная, казалось бы, семья — преуспевающий адвокат, его очаровательная жена, приемный семилетний сынишка, в котором родители души не чают. Но не все гладко в действительности. Мужу приятнее проводить время с любовницей, а скучающей жене — со старшеклассником, живущим по соседству…
Релиз от - &
Сэмпл: http://multi-up.com/1024965
Качество видео: DVDRip
Формат видео: AVI
Видео: MPEG-4 Visual at 843 Кбит/сек; 688 x 320 (2.150) at 25.000 fps
Аудио: MPEG Audio at 128 Кбит/сек; 2 канала, 48,0 КГц
Автор -
MediaInfo
Общее
Полное имя : D:\Фильмы\Азиатские\Жена хорошего адвоката\A Good Lawyer's Wife.2003.DVDRip.XviD.745MB. rip by [Assassin's Creed].avi
Формат : AVI
Формат/Информация : Audio Video Interleave
Размер файла : 749 Мбайт
Продолжительность : 1 ч. 46 м.
Общий поток : 981 Кбит/сек
Программа кодирования : VirtualDubMod 1.5.10.3 | www.virtualdub-fr.org || (build 2550/release)
Библиотека кодирования : VirtualDubMod build 2550/release
Видео
Идентификатор : 0
Формат : MPEG-4 Visual
Профиль формата : Advanced Simple@L5
Параметр BVOP формата : 1
Параметр QPel формата : Нет
Параметр GMC формата : Без точки перехода
Параметр матрицы формата : Default (MPEG)
Идентификатор кодека : XVID
Идентификатор кодека/Подсказка : XviD
Продолжительность : 1 ч. 46 м.
Битрейт : 843 Кбит/сек
Ширина : 688 пикселей
Высота : 320 пикселей
Соотношение сторон : 2,2:1
Частота кадров : 25,000 кадров/сек
Цветовое пространство : YUV
Субдискретизация насыщенности : 4:2:0
Битовая глубина : 8 бит
Тип развёртки : Прогрессивная
Метод сжатия : С потерями
Бит/(Пиксели*Кадры) : 0.153
Размер потока : 644 Мбайт (86%)
Библиотека кодирования : XviD 1.2.1 (UTC 2008-12-04)
Аудио
Идентификатор : 1
Формат : MPEG Audio
Версия формата : Version 1
Профиль формата : Layer 3
Идентификатор кодека : 55
Идентификатор кодека/Подсказка : MP3
Продолжительность : 1 ч. 46 м.
Вид битрейта : Постоянный
Битрейт : 128 Кбит/сек
Каналы : 2 канала
Частота : 48,0 КГц
Метод сжатия : С потерями
Размер потока : 97,7 Мбайт (13%)
Выравнивание : Соединение по промежуткам
Продолжительность промежутка : 40 мс. (1,00 видеокадр)
Время предзагрузки промежутка : 504 мс.
Библиотека кодирования : LAME3.99r
Настройки программы : -m s -V 4 -q 2 -lowpass 17 -b 128
Скриншот c названием фильма
Скриншоты
[reactorr.org].t71391.torrent
Торрент: Зарегистрирован [ 07-01-2015 18:55 ] · BAE568658AAE49551B9B40258E4B36608A0F3A69

Скачать .torrent

Скачать

15 KB

Статус: проверено
Скачан: 5 раз
Размер: 749 MB
terms.php
[Профиль] [ЛС]
Показать сообщения:    
Ответить на тему

Текущее время: 23-Июн 23:43

Часовой пояс: UTC + 3



Вы не можете начинать темы
Вы не можете отвечать на сообщения
Вы не можете редактировать свои сообщения
Вы не можете удалять свои сообщения
Вы не можете голосовать в опросах
Вы не можете прикреплять файлы к сообщениям
Вы можете скачивать файлы