Первый удар / First Strike / Ging chaat goo si 4: Ji gaan daan yam mo (Стэнли Тонг / Stanley Tong) [1995, США, Австралия, Гонконг, Украина, Россия, боевик, триллер, драма, комедия, криминал, DVDRip] AVO [А. Гаврилов]

Ответить на тему
Статистика раздачи
Размер:  748 MB   |    Зарегистрирован:  2 года 1 месяц   |    Скачан:  0 раз
Сидов:  2  [  0 KB/s  ]   Личеров:  3  [  0 KB/s  ]   Подробная статистика пиров
 
     
 
 
Автор Сообщение

Гость ®

Пол: Не указан

Создавать темы 07-Янв-2015 18:54

[Цитировать]

Первый удар / First Strike / Ging chaat goo si 4: Ji gaan daan yam moЯпонское издание TOWA, Полная версия- -Страна: США, Австралия, Гонконг, Украина, Россия
Жанр: боевик, триллер, драма, комедия, криминал
Год выпуска: 1995
Продолжительность: 01:47:29-Перевод: Авторский (одноголосый закадровый) [А. Гаврилов]-Cубтитры: нет
Оригинальная аудиодорожка: нет
Режиссер: Стэнли Тонг / Stanley Tong
В ролях: Джеки Чан, Джексон Лью, Энни Ву, Билл Тун, Юрий Петров, Нонна Гришаева, Джон Ивис, Терри Ву, Кристофер Казмарек, Эйлен Сит...
Описание: Агенту ЦРУ Джеки поручают следить за шпионкой Наташей, которая купила тур на Украину. Джеки надеется выследить, с кем будет контактировать девушка, но она скрывается. Джеки бросается в погоню. Он гонится за ней по Австралии и России. Главная его задача — остаться в живых и поймать Тсуи, сообщника Наташи, похитившего ядерную боеголовку. Тсуи оказывается ее любовником, бывшим сотрудником ЦРУ. Его завербовал сотрудник КГБ Егоров, лидер русской мафии.
Релиз от -
Качество видео: DVDRip
Формат видео: AVI
Видео: MPEG-4 Visual at 834 Кбит/сек; 688 x 304 (2.263) at 23.976 fps
Аудио: MPEG Audio at 128 Кбит/сек; 2 канала, 48,0 КГц
Автор -
MediaInfo
Общее
Полное имя : D:\Фильмы\Азиатские\Первый удар\First Strike.1996.DVDRip.XviD.745MB. rip by [Assassin's Creed].avi
Формат : AVI
Формат/Информация : Audio Video Interleave
Размер файла : 748 Мбайт
Продолжительность : 1 ч. 47 м.
Общий поток : 972 Кбит/сек
Программа кодирования : VirtualDubMod 1.5.10.3 | www.virtualdub-fr.org || (build 2550/release)
Библиотека кодирования : VirtualDubMod build 2550/release
Видео
Идентификатор : 0
Формат : MPEG-4 Visual
Профиль формата : Advanced Simple@L5
Параметр BVOP формата : 1
Параметр QPel формата : Нет
Параметр GMC формата : Без точки перехода
Параметр матрицы формата : Default (MPEG)
Идентификатор кодека : XVID
Идентификатор кодека/Подсказка : XviD
Продолжительность : 1 ч. 47 м.
Битрейт : 834 Кбит/сек
Ширина : 688 пикселей
Высота : 304 пикселя
Соотношение сторон : 2,25:1
Частота кадров : 23,976 кадра/сек
Цветовое пространство : YUV
Субдискретизация насыщенности : 4:2:0
Битовая глубина : 8 бит
Тип развёртки : Прогрессивная
Метод сжатия : С потерями
Бит/(Пиксели*Кадры) : 0.166
Размер потока : 642 Мбайт (86%)
Библиотека кодирования : XviD 1.2.1 (UTC 2008-12-04)
Аудио
Идентификатор : 1
Формат : MPEG Audio
Версия формата : Version 1
Профиль формата : Layer 3
Идентификатор кодека : 55
Идентификатор кодека/Подсказка : MP3
Продолжительность : 1 ч. 47 м.
Вид битрейта : Постоянный
Битрейт : 128 Кбит/сек
Каналы : 2 канала
Частота : 48,0 КГц
Метод сжатия : С потерями
Размер потока : 98,5 Мбайт (13%)
Выравнивание : Соединение по промежуткам
Продолжительность промежутка : 42 мс. (1,00 видеокадр)
Время предзагрузки промежутка : 504 мс.
Библиотека кодирования : LAME3.99r
Настройки программы : -m s -V 4 -q 2 -lowpass 17 -b 128
Скриншот c названием фильма
Скриншоты
[reactorr.org].t71397.torrent
Торрент: Зарегистрирован [ 07-01-2015 18:54 ] · 954BF77F47CCEB03337F280CCF64C0B72D351294

Скачать .torrent

Скачать

15 KB

Статус: проверено
Скачан: 0 раз
Размер: 748 MB
terms.php
 
Показать сообщения:    
Ответить на тему

Текущее время: 27-Фев 17:13

Часовой пояс: UTC + 3



Вы не можете начинать темы
Вы не можете отвечать на сообщения
Вы не можете редактировать свои сообщения
Вы не можете удалять свои сообщения
Вы не можете голосовать в опросах
Вы не можете прикреплять файлы к сообщениям
Вы можете скачивать файлы