Добро пожаловать в Бушон / Bienvenue a Bouchon / Vive Bouchon! (Люк Беро / Luc Beraud) [2010, Франция, комедия, экранизация, DVB] Original (Fre) + Sub (rus)

Ответить на тему
Статистика раздачи
Размер:  1,52 GB   |    Зарегистрирован:  2 года 4 месяца   |    Скачан:  2 раза
Сидов:  6  [  0 KB/s  ]   Личеров:  1  [  0 KB/s  ]   Подробная статистика пиров
 
     
 
 
Автор Сообщение

Гость ®

Пол: Не указан

Создавать темы 08-Янв-2015 06:05

[Цитировать]

Добро пожаловать в Бушон
Bienvenue à Bouchon- Страна: Франция
Жанр: комедия, экранизация
Год выпуска: 2010
Продолжительность: 01:30:44
Перевод: Субтитры (перевод М.Кузиной, Éclair Group)
Cубтитры: русские
Оригинальная аудиодорожка: французский
Режиссер: Люк Беро / Luc BéraudВ ролях: Франсис Перрен / Francis Perrin (Butin), Иван Ле Боллок / Yvan Le Bolloc'h (Flapi), Элоди Френк / Elodie Frenck (Melle Odile), Жан-Туссен Бернар / Jean-Toussaint Bernard (Nicolas), Дави Сарду / Davy Sardou (Crouton), Тома Шаброль / Thomas Chabrol (Le ministre)
Описание: Сценарий Бернара Стора / Bernard Stora по пьесе "Да здравствует Бушон! / Vive Bouchon!" (2006) Жеральда Сиблейраса / Gérald Sibleyras и Жана Дела / Jean Dell.
Деревушка в центре Франции в одностороннем порядке провозгласила свою независимость и обратилась с просьбой о присоединении к Евросоюзу. В деревушке 867 жителей, а называется она Бушон. Как такое могло случиться? Но разве можно с точностью сказать, с чего начинается катастрофа?...
Доп. информация: TV5MONDE DVB-S

Качество видео: DVB
Формат видео: MKV
Видео: MPEG Video 2, 704x576@1024x576 (16:9), 25 fps, ~2151 kbps avg, 0.212 bit/pixel
Аудио: Французский (MPEG Audio 2, 2 ch, 48 kHz, ~192.00 kbps avg)
Формат субтитров: hardsub (неотключаемые)
MediaInfo
Общее
Уникальный идентификатор : 217248723510102867424209519862842709695 (0xA370950AFB0A3C0791898EB9D1A0D6BF)
Полное имя : E:\My Torrents 2\[apreder]Bienvenue_a_Bouchon(2010)DVB.mkv
Формат : Matroska
Версия формата : Version 2
Размер файла : 1,52 Гбайт
Продолжительность : 1 ч. 30 м.
Режим общего битрейта : Переменный
Общий поток : 2391 Кбит/сек
Дата кодирования : UTC 2015-01-07 12:24:39
Программа кодирования : mkvmerge v7.5.0 ('Glass Culture') 64bit built on Jan 4 2015 16:48:44
Библиотека кодирования : libebml v1.3.1 + libmatroska v1.4.2
Видео
Идентификатор : 1
Формат : MPEG Video
Версия формата : Version 2
Профиль формата : Main@Main
Параметр BVOP формата : Да
Параметр матрицы формата : Выборочная
Параметр GOP формата : M=3, N=15
Format_Settings_PictureStructure : Frame
Идентификатор кодека : V_MPEG2
Идентификатор кодека/Информация : MPEG 1 or 2 Video
Продолжительность : 1 ч. 30 м.
Вид битрейта : Переменный
Битрейт : 2151 Кбит/сек
Ширина : 704 пикселя
Высота : 576 пикселей
Соотношение сторон : 16:9
Режим частоты кадров : Постоянный
Частота кадров : 25,000 кадров/сек
Стандарт вещания : PAL
Цветовое пространство : YUV
Субдискретизация насыщенности : 4:2:0
Битовая глубина : 8 бит
Тип развёртки : Чересстрочная
Порядок развёртки : Верхнее поле первое
Метод сжатия : С потерями
Бит/(Пиксели*Кадры) : 0.212
Временной код первого кадра : 00:00:00:00
Оригинал временного кода : Group of pictures header
Размер потока : 1,36 Гбайт (90%)
Default : Да
Forced : Нет
Gop_OpenClosed_FirstFrame : Closed
Аудио
Идентификатор : 2
Формат : MPEG Audio
Версия формата : Version 1
Профиль формата : Layer 2
Идентификатор кодека : A_MPEG/L2
Идентификатор кодека/Подсказка : MP2
Продолжительность : 1 ч. 30 м.
Вид битрейта : Постоянный
Битрейт : 192 Кбит/сек
Каналы : 2 канала
Частота : 48,0 КГц
Метод сжатия : С потерями
Размер потока : 125 Мбайт (8%)
Язык : French
Default : Да
Forced : Нет
Скриншот c названием фильма
Скриншоты

Резервные скриншоты
-[2'034]
[reactorr.org].t71401.torrent
Торрент: Зарегистрирован [ 08-01-2015 06:05 ] · 5231A7E07CB347987437DC4456995CEC32BF773F

Скачать .torrent

Скачать

16 KB

Статус: проверено
Скачан: 2 раз
Размер: 1,52 GB
terms.php
 
Показать сообщения:    
Ответить на тему

Текущее время: 30-Май 08:24

Часовой пояс: UTC + 3



Вы не можете начинать темы
Вы не можете отвечать на сообщения
Вы не можете редактировать свои сообщения
Вы не можете удалять свои сообщения
Вы не можете голосовать в опросах
Вы не можете прикреплять файлы к сообщениям
Вы можете скачивать файлы