Злоключения Альфреда / Несчастье Альфреда / Неудачник Альфред или После дождичка... плохая погода / The Troubles of Alfred / Les Malheurs d'Alfred (Пьер Ришар / Pierre Richard) [1972, Франция, комедия, BDRip] MVO (РенТВ)

Ответить на тему
Статистика раздачи
Размер:  1,45 GB   |    Зарегистрирован:  2 года 3 месяца   |    Скачан:  1 раз
Сидов:  9  [  0 KB/s  ]   Личеров:  3  [  0 KB/s  ]   Подробная статистика пиров
 
     
 
 
Автор Сообщение

nuts19 ®

Пол: Не указан

Стаж: 5 лет 10 месяцев

Сообщений: 1

Создавать темы 08-Янв-2015 06:46

[Цитировать]

Злоключения Альфреда / The Troubles of Alfred / Les Malheurs d'Alfred- Год выпуска: 1972
Выпущено: Франция
Жанр: комедия
Продолжительность: 01:33:28
Перевод: Профессиональный (многоголосый, закадровый) РенТВ
Субтитры: нет-Режиссер: Пьер Ришар / Pierre Richard
В ролях: Пьер Ришар, Анни Дюпере, Жан Карме, Поль Пребуа, Поль Ле Персон, Марио Давид, Френсис Лакс, Ив Робер, Робер Дальбан, Даниэль Лалу
О фильме: Альфреду Дюмонтье с рождения катастрофически не везло: в семь лет он чуть было не попал в плен к фашистам, отец и мать умерли рано, девушка бросила его и ушла в монастырь. Пресытившись несчастьями, Альфред решил утопиться. И надо же было такому случиться, что именно на том самом мосту, с которого бросился в воду Альфред, в ту самую ночь, и в тот же час, туда пришла такая же невезучая бедолага — Агата Бодар, которую бросил известный телеведущий. Знай они, что сулит им эта случайная встреча… то они, наверное, всё равно бы пошли на тот мост, чтобы встретиться, и никогда не расставаться.-Релиз:
Автор: yaroslaigor
Качество: BDRip (источник: / BD-Remux / 1080p)
Формат: AVI
Видео: 720x432 (1.67:1), 24 fps, XviD build 65 ~2022 kbps avg, 0.27 bit/pixel
Аудио: 48 kHz, AC3 Dolby Digital, 2/0 (L,R) ch, ~192 kbps avg
Размер: 1487.02 Mb (1/3 DVD-R)
Скачать: Семпл-
Кадры из фильма
-
Mi
Формат : AVI
Формат/Информация : Audio Video Interleave
Размер файла : 1,45 Гбайт
Продолжительность : 1 ч. 33 м.
Общий поток : 2224 Кбит/сек
Название фильма : Злоключения Альфреда / The Troubles of Alfred / Les Malheurs d'Alfred (1972) BDRip
Режиссёр : yaroslaigor
Жанр : комедия
Программа кодирования : VirtualDubMod 1.5.10.2 (build 2542/release)
Примечание : 05.01.2015
Видео
Идентификатор : 0
Формат : MPEG-4 Visual
Профиль формата : Advanced Simple@L5
Параметр BVOP формата : 1
Параметр QPel формата : Нет
Параметр GMC формата : Без точки перехода
Параметр матрицы формата : Выборочная
Идентификатор кодека : XVID
Идентификатор кодека/Подсказка : XviD
Продолжительность : 1 ч. 33 м.
Битрейт : 2023 Кбит/сек
Ширина : 720 пикселей
Высота : 432 пикселя
Соотношение сторон : 1,667
Частота кадров : 24,000 кадра/сек
Цветовое пространство : YUV
Субдискретизация насыщенности : 4:2:0
Битовая глубина : 8 бит
Тип развёртки : Прогрессивная
Метод сжатия : С потерями
Бит/(Пиксели*Кадры) : 0.271
Размер потока : 1,32 Гбайт (91%)
Библиотека кодирования : XviD 65
Аудио
Идентификатор : 1
Формат : AC-3
Формат/Информация : Audio Coding 3
Расширение режима : CM (complete main)
Параметр Endianness формата : Big
Идентификатор кодека : 2000
Продолжительность : 1 ч. 33 м.
Вид битрейта : Постоянный
Битрейт : 192 Кбит/сек
Каналы : 2 канала
Расположение каналов : Front: L R
Частота : 48,0 КГц
Битовая глубина : 16 бит
Метод сжатия : С потерями
Размер потока : 128 Мбайт (9%)
Выравнивание : Разделение по промежуткам
Продолжительность промежутка : 42 мс. (1,00 видеокадр)
Время предзагрузки промежутка : 500 мс.
-
[reactorr.org].t71404.torrent
Торрент: Зарегистрирован [ 08-01-2015 06:46 ] · 4D6726063978164B6A6C839062700B48F069AAFE

Скачать .torrent

Скачать

15 KB

Статус: проверено
Скачан: 1 раз
Размер: 1,45 GB
terms.php
[Профиль] [ЛС]
Показать сообщения:    
Ответить на тему

Текущее время: 27-Апр 18:07

Часовой пояс: UTC + 3



Вы не можете начинать темы
Вы не можете отвечать на сообщения
Вы не можете редактировать свои сообщения
Вы не можете удалять свои сообщения
Вы не можете голосовать в опросах
Вы не можете прикреплять файлы к сообщениям
Вы можете скачивать файлы