Персона / Persona (Такаси Комацу / Takashi Komatsu) [2000, Япония, триллер, DVDRip] VO (aleksei80)

Ответить на тему
Статистика раздачи
Размер:  1,3 GB   |    Зарегистрирован:  2 года 8 месяцев   |    Скачан:  0 раз
Сидов:  6  [  0 KB/s  ]   Подробная статистика пиров
 
     
 
 
Автор Сообщение

soroka6711 ®

Пол: Не указан

Стаж: 8 лет 6 месяцев

Сообщений: 1

Создавать темы 08-Янв-2015 06:55

[Цитировать]

Персона / Persona
Страна: Япония
Жанр: триллер
Год выпуска: 2000
Продолжительность: 01:29:31
Перевод: Одноголосый закадровый aleksei80
Cубтитры: нет
Оригинальная аудиодорожка: нет
Режиссер: Такаси Комацу / Takashi Komatsu
В ролях: Тацуя Фудзивара
Мая Куросу
Иккэй Ватанабэ
Ёма Исигаки
Тиаки Курияма
Хиромицу Сукудзи
Акадзи Маро
Описание: Отчаянные неудачники и жертвы издевательств находят компромисс против своих обидчиков, они решают скрыть себя и свои личности под маской, тем самым, приобретая мужество показаться им на глазах. Однако, не всё так просто, как кажется, данное новшество движения масок лишь прикрытие истинных преступников, в следствии возникает полный беспредел и хаос...
Сэмпл: http://multi-up.com/1025015
Качество видео: DVDRip
Формат видео: AVI
Видео: XVID, 720x400, 16:9, 25.000 fps, 1 874 Kbps
Аудио: MP3, 44.1 KHz, 192 Kbps, 2 channels
MediaInfo
General
Complete name : C:\Users\котэ\Downloads\раздача на рутрекере\Persona.avi
Format : AVI
Format/Info : Audio Video Interleave
File size : 1.30 GiB
Duration : 1h 29mn
Overall bit rate : 2 075 Kbps
Writing application : VirtualDubMod 1.5.10.2 (build 2540/release)
Writing library : VirtualDub build 32842/release
Video
ID : 0
Format : MPEG-4 Visual
Format profile : Advanced Simple@L5
Format settings, BVOP : 1
Format settings, QPel : No
Format settings, GMC : No warppoints
Format settings, Matrix : Custom
Codec ID : XVID
Codec ID/Hint : XviD
Duration : 1h 29mn
Bit rate : 1 874 Kbps
Width : 720 pixels
Height : 400 pixels
Display aspect ratio : 16:9
Frame rate : 25.000 fps
Color space : YUV
Chroma subsampling : 4:2:0
Bit depth : 8 bits
Scan type : Progressive
Compression mode : Lossy
Bits/(Pixel*Frame) : 0.260
Stream size : 1.17 GiB (90%)
Writing library : XviD 73
Audio
ID : 1
Format : MPEG Audio
Format version : Version 1
Format profile : Layer 3
Mode : Joint stereo
Mode extension : MS Stereo
Codec ID : 55
Codec ID/Hint : MP3
Duration : 1h 29mn
Bit rate mode : Constant
Bit rate : 192 Kbps
Channel(s) : 2 channels
Sampling rate : 44.1 KHz
Compression mode : Lossy
Stream size : 123 MiB (9%)
Alignment : Split accross interleaves
Interleave, duration : 40 ms (1.00 video frame)
Interleave, preload duration : 500 ms
Writing library : LAME3.97
Скриншот c названием фильма
[reactorr.org].t71416.torrent
Торрент: Зарегистрирован [ 08-01-2015 06:55 ] · DE2A60BC83A4F0E615FE2D640C8C56B54D64C6D2

Скачать .torrent

Скачать

14 KB

Статус: проверено
Скачан: 0 раз
Размер: 1,3 GB
terms.php
[Профиль] [ЛС]
Показать сообщения:    
Ответить на тему

Текущее время: 23-Сен 05:09

Часовой пояс: UTC + 3



Вы не можете начинать темы
Вы не можете отвечать на сообщения
Вы не можете редактировать свои сообщения
Вы не можете удалять свои сообщения
Вы не можете голосовать в опросах
Вы не можете прикреплять файлы к сообщениям
Вы можете скачивать файлы