Коррупционер / The Corruptor (Джеймс Фоули / James Foley) [1999, США, Боевик, триллер, драма, криминал, детектив, BDRip] Dub

Ответить на тему
Статистика раздачи
Размер:  1,46 GB   |    Зарегистрирован:  2 года 2 месяца   |    Скачан:  3 раза
Сидов:  19  [  0 KB/s  ]   Личеров:  1  [  0 KB/s  ]   Подробная статистика пиров
 
     
 
 
Автор Сообщение

Skillters ®

Пол: Мужской

Стаж: 5 лет

Сообщений: 201

Создавать темы 24-Апр-2015 21:17

[Цитировать]

Коррупционер / The Corruptor
- Год выпуска: 1999
Выпущено: США / New Line Cinema
Жанр: боевик, триллер, драма, криминал, детектив
Продолжительность: 01:50:10
Перевод: Профессиональный (полное дублирование) R5
Cубтитры: нет-Режиссер:
Джеймс Фоули / James Foley-В ролях:
Юнь-Фат Чоу, Марк Уолберг, Элизабет Линдси, Брайен Кокс, Рик Янг, Байрон Манн, Пол Бен-Виктор, Эндрю Пэнг, Ким Чэн, Билл МакДоналд-Описание:
Лейтенант Ник Чен — один из наиболее заслуженных полицейских Нью-Йорка. Как китайский иммигрант, Чен использовал связи с Триадой, чтобы продвинуться по служебной лестнице. Теперь он поддерживает порядок в Чайна-тауне. Когда началась война между Тонгами и Фукинскими Драконами Чен получает в напарники новичка-идеалиста Денни Уоллеса, который поначалу не осознает всю власть и влияние своего нового босса…- -Качество: BDRip
Формат: AVI
Видео кодек: XviD
Аудио кодек: AC3
Видео: 720x304 (2.37:1), 23.976 fps, XviD build 73 ~1501 kbps avg, 0.29 bit/pixel
Аудио: 48 kHz, AC3 Dolby Digital, 3/2 (L,C,R,l,r) + LFE ch, ~384.00 kbps avg
-
Скриншоты
MediaInfo
General
Complete name : D:\Korrupcioner_1999_BDRip_by_Dalemake.avi
Format : AVI
Format/Info : Audio Video Interleave
File size : 1.46 GiB
Duration : 1h 50mn
Overall bit rate : 1 895 Kbps
Writing application : VirtualDubMod 1.5.10.3 | www.virtualdub-fr.org || (build 2550/release)
Writing library : VirtualDubMod build 2550/release
Video
ID : 0
Format : MPEG-4 Visual
Format profile : Advanced Simple@L5
Format settings, BVOP : 1
Format settings, QPel : No
Format settings, GMC : No warppoints
Format settings, Matrix : Custom
Codec ID : XVID
Codec ID/Hint : XviD
Duration : 1h 50mn
Bit rate : 1 501 Kbps
Width : 720 pixels
Height : 304 pixels
Display aspect ratio : 2.35:1
Frame rate : 23.976 fps
Color space : YUV
Chroma subsampling : 4:2:0
Bit depth : 8 bits
Scan type : Progressive
Compression mode : Lossy
Bits/(Pixel*Frame) : 0.286
Stream size : 1.16 GiB (79%)
Writing library : XviD 73
Audio
ID : 1
Format : AC-3
Format/Info : Audio Coding 3
Mode extension : CM (complete main)
Format settings, Endianness : Big
Codec ID : 2000
Duration : 1h 50mn
Bit rate mode : Constant
Bit rate : 384 Kbps
Channel(s) : 6 channels
Channel positions : Front: L C R, Side: L R, LFE
Sampling rate : 48.0 KHz
Bit depth : 16 bits
Compression mode : Lossy
Stream size : 303 MiB (20%)
Alignment : Split accross interleaves
Interleave, duration : 42 ms (1.00 video frame)
Interleave, preload duration : 500 ms
[reactorr.org].t71527.torrent
Торрент: Зарегистрирован [ 24-04-2015 21:17 ] · 06E49FAEECA69A9DDF9079D42403D6E2B24DAB3E

Скачать .torrent

Скачать

15 KB

Статус: проверено
Скачан: 3 раз
Размер: 1,46 GB
terms.php
[Профиль] [ЛС]
Показать сообщения:    
Ответить на тему

Текущее время: 24-Июл 05:43

Часовой пояс: UTC + 3



Вы не можете начинать темы
Вы не можете отвечать на сообщения
Вы не можете редактировать свои сообщения
Вы не можете удалять свои сообщения
Вы не можете голосовать в опросах
Вы не можете прикреплять файлы к сообщениям
Вы можете скачивать файлы