Война / War (Филлип Дж. Этвелл / Phillip G. Atwell) [2007, США, Боевик, триллер, криминал, BDRip] Dub

Ответить на тему
Статистика раздачи
Размер:  1,46 GB   |    Зарегистрирован:  2 года   |    Скачан:  3 раза
Сидов:  105  [  0 KB/s  ]   Личеров:  3  [  0 KB/s  ]   Подробная статистика пиров
 
     
 
 
Автор Сообщение

Skillters ®

Пол: Мужской

Стаж: 4 года 9 месяцев

Сообщений: 201

Создавать темы 24-Апр-2015 21:22

[Цитировать]

Война / War
- Год выпуска: 2007
Страна: США, Канада / Current Entertainment
Жанр: боевик, триллер, криминал
Продолжительность: 01:42:53
Перевод: Профессиональный (полное дублирование) BD RUS
Cубтитры: нет-Режиссер:
Филлип Дж. Этвелл / Phillip G. Atwell-В ролях:
Джет Ли, Джейсон Стэйтем, Джон Лоне, Девон Аоки, Луис Гузман, Сауль Рубинек, Рио Ишибаси, Санг Кенг, Мэтью Ст. Патрик, Надин Веласкес, Андреа Рот, Кеннет Чои, Марк Чэн, Кэйн Косуги, Кеннеди Монтано, Терри Чен, Стеф Сонг, Анника Фу, Николас Элиа, Эрик Кинлисайд, Пол Джарретт, Джонсон Фэн, Аарон Ау, Марк Луи, Дженнифер Чунг, Люси Лью, Рэнди Ли, Дерек Лоу, Джон Новак, Дон Лью, Нельс Леннарсон, Питер Шинкода, Митчел А. Ли Юэнь-Описание:
В мире, которым правит страх, только правосудие спасает жизни. На счету агента ФБР Кроуфорда и его напарника немало обезвреженных бандитов. Но справедливость и закон оказались бессильны, когда одержимый убийца объявил им войну. С этого момента жизнь Кроуфорда превращается в бесконечную игру со смертью, захватывающую и жестокую. Игру, где жизнь не стоит ничего, а бывшие друзья становятся заклятыми врагами.- -Качество: BDRip
Формат: AVI
Видео кодек: XviD
Аудио кодек: AC3
Видео: 704x400 (1.76:1), 24.000 fps, XviD build 73 ~1634 kbps avg, 0.24 bit/pixel
Аудио: 48 kHz, AC3 Dolby Digital, 3/2 (L,C,R,l,r) + LFE ch, ~384.00 kbps avg
-
Скриншоты
MediaInfo
General
Complete name : D:\Voina_2007_BDRip_[OPEN_MATTE]_by_Dalemake.avi
Format : AVI
Format/Info : Audio Video Interleave
File size : 1.46 GiB
Duration : 1h 42mn
Overall bit rate : 2 028 Kbps
Writing application : VirtualDubMod 1.5.10.3 | www.virtualdub-fr.org || (build 2550/release)
Writing library : VirtualDubMod build 2550/release
Video
ID : 0
Format : MPEG-4 Visual
Format profile : Advanced Simple@L5
Format settings, BVOP : 1
Format settings, QPel : No
Format settings, GMC : No warppoints
Format settings, Matrix : Custom
Codec ID : XVID
Codec ID/Hint : XviD
Duration : 1h 42mn
Bit rate : 1 635 Kbps
Width : 704 pixels
Height : 400 pixels
Display aspect ratio : 16:9
Frame rate : 24.000 fps
Color space : YUV
Chroma subsampling : 4:2:0
Bit depth : 8 bits
Scan type : Progressive
Compression mode : Lossy
Bits/(Pixel*Frame) : 0.242
Stream size : 1.18 GiB (81%)
Writing library : XviD 73
Audio
ID : 1
Format : AC-3
Format/Info : Audio Coding 3
Mode extension : CM (complete main)
Format settings, Endianness : Big
Codec ID : 2000
Duration : 1h 42mn
Bit rate mode : Constant
Bit rate : 384 Kbps
Channel(s) : 6 channels
Channel positions : Front: L C R, Side: L R, LFE
Sampling rate : 48.0 KHz
Bit depth : 16 bits
Compression mode : Lossy
Stream size : 283 MiB (19%)
Alignment : Split accross interleaves
Interleave, duration : 42 ms (1.00 video frame)
Interleave, preload duration : 500 ms
[reactorr.org].t71528.torrent
Торрент: Зарегистрирован [ 24-04-2015 21:22 ] · D455486E6F71D5BD4AC37FE872BE613886FAEE50

Скачать .torrent

Скачать

15 KB

Статус: проверено
Скачан: 3 раз
Размер: 1,46 GB
terms.php
[Профиль] [ЛС]
Показать сообщения:    
Ответить на тему

Текущее время: 28-Апр 03:44

Часовой пояс: UTC + 3



Вы не можете начинать темы
Вы не можете отвечать на сообщения
Вы не можете редактировать свои сообщения
Вы не можете удалять свои сообщения
Вы не можете голосовать в опросах
Вы не можете прикреплять файлы к сообщениям
Вы можете скачивать файлы