Непрощенный / Unforgiven (Клинт Иствуд / Clint Eastwood) [1992, США, Вестерн, BDRip] Dub (Варус Видео) + MVO (Позитив)

Ответить на тему
Статистика раздачи
Размер:  1,46 GB   |    Зарегистрирован:  1 год 9 месяцев   |    Скачан:  0 раз
Сидов:  26  [  0 KB/s  ]   Подробная статистика пиров
 
     
 
 
Автор Сообщение

Skillters ®

Пол: Мужской

Стаж: 5 лет

Сообщений: 201

Создавать темы 05-Окт-2015 19:08

[Цитировать]

Непрощенный / Unforgiven- Год выпуска: 1992
Выпущено: США / Warner Bros. Pictures Co.
Жанр: вестерн
Продолжительность: 02:10:40
Перевод (1): Профессиональный (полное дублирование) Варус Видео / Студия Нева
Перевод (2): Профессиональный (многоголосый закадровый) Позитив-Мультимедиа
Cубтитры: нет-Режиссер:
Клинт Иствуд / Clint Eastwood-В ролях:
Клинт Иствуд, Джин Хэкмен, Морган Фримен, Ричард Харрис, Джаймз Вулветт, Сол Рубинек, Фрэнсис Фишер, Анна Левайн-Томсон, Дэвид Муччи, Роб Кэмпбелл-Описание:
Это история Уильяма Мунни — бывшего хладнокровного убийцы, нашедшего в себе силы покончить с грязным ремеслом. Он стал фермером, завел семью. И вот сейчас его жена умирает, оставляя его одного с двумя детьми.
Мунни беден, ему нужны деньги. Скофилд Кид предлагает ему поймать двух ковбоев, совершивших преступление, и получить за это вознаграждение. Но все складывается совсем не так, как хотелось…- -Качество: BDRip (Исходник: BDRemux )
Формат: AVI
Видео кодек: XviD
Аудио кодек: AC3
Видео: 720x304 (2.37:1), 23.976 fps, XviD build 73 ~1206 kbps avg, 0.23 bit/pixel
Аудио #1: 48 kHz, AC3 Dolby Digital, 2/0 (L,R) ch, ~192.00 kbps avg (DUB)
Аудио #2: 48 kHz, AC3 Dolby Digital, 2/0 (L,R) ch, ~192.00 kbps avg (MVO)
-
Скриншоты
MediaInfo
General
Complete name                            : D:\Neprozhennyi_1992_BDRip_by_Dalemake.avi
Format                                   : AVI
Format/Info                              : Audio Video Interleave
File size                                : 1.46 GiB
Duration                                 : 2h 10mn
Overall bit rate                         : 1 605 Kbps
Writing application                      : VirtualDubMod 1.5.10.3 | www.virtualdub-fr.org || (build 2550/release)
Writing library                          : VirtualDubMod build 2550/release
[br]
Video
ID                                       : 0
Format                                   : MPEG-4 Visual
Format profile                           : Advanced Simple@L5
Format settings, BVOP                    : 1
Format settings, QPel                    : No
Format settings, GMC                     : No warppoints
Format settings, Matrix                  : Custom
Codec ID                                 : XVID
Codec ID/Hint                            : XviD
Duration                                 : 2h 10mn
Bit rate                                 : 1 207 Kbps
Width                                    : 720 pixels
Height                                   : 304 pixels
Display aspect ratio                     : 2.35:1
Frame rate                               : 23.976 fps
Color space                              : YUV
Chroma subsampling                       : 4:2:0
Bit depth                                : 8 bits
Scan type                                : Progressive
Compression mode                         : Lossy
Bits/(Pixel*Frame)                       : 0.230
Stream size                              : 1.10 GiB (75%)
Writing library                          : XviD 73
[br]
Audio #1
ID                                       : 1
Format                                   : AC-3
Format/Info                              : Audio Coding 3
Mode extension                           : CM (complete main)
Format settings, Endianness              : Big
Codec ID                                 : 2000
Duration                                 : 2h 10mn
Bit rate mode                            : Constant
Bit rate                                 : 192 Kbps
Channel(s)                               : 2 channels
Channel positions                        : Front: L R
Sampling rate                            : 48.0 KHz
Bit depth                                : 16 bits
Compression mode                         : Lossy
Stream size                              : 179 MiB (12%)
Alignment                                : Split accross interleaves
Interleave, duration                     : 42 ms (1.00 video frame)
Interleave, preload duration             : 500 ms
[br]
Audio #2
ID                                       : 2
Format                                   : AC-3
Format/Info                              : Audio Coding 3
Mode extension                           : CM (complete main)
Format settings, Endianness              : Big
Codec ID                                 : 2000
Duration                                 : 2h 10mn
Bit rate mode                            : Constant
Bit rate                                 : 192 Kbps
Channel(s)                               : 2 channels
Channel positions                        : Front: L R
Sampling rate                            : 48.0 KHz
Bit depth                                : 16 bits
Compression mode                         : Lossy
Stream size                              : 179 MiB (12%)
Alignment                                : Split accross interleaves
Interleave, duration                     : 42 ms (1.00 video frame)
Interleave, preload duration             : 500 ms
[reactorr.org].t71984.torrent
Торрент: Зарегистрирован [ 05-10-2015 19:08 ] · 105ADAC673F3119B60E294B2005920435A4A017E

Скачать .torrent

Скачать

15 KB

Статус: проверено
Скачан: 0 раз
Размер: 1,46 GB
terms.php
[Профиль] [ЛС]
Показать сообщения:    
Ответить на тему

Текущее время: 24-Июл 05:43

Часовой пояс: UTC + 3



Вы не можете начинать темы
Вы не можете отвечать на сообщения
Вы не можете редактировать свои сообщения
Вы не можете удалять свои сообщения
Вы не можете голосовать в опросах
Вы не можете прикреплять файлы к сообщениям
Вы можете скачивать файлы