Черная месса / Black Mass (Скотт Купер / Scott Cooper) [2015, США, Драма, криминал, биография, WEB-DL 1080p] Dub + Original Eng

Ответить на тему
Статистика раздачи
Размер:  4,57 GB   |    Зарегистрирован:  2 года 8 месяцев   |    Скачан:  2 раза

Полного источника не было: 2 года 8 месяцев

 
     
 
 
Автор Сообщение

Crash08 ®

Пол: Мужской

Стаж: 6 лет 11 месяцев

Сообщений: 4780

Создавать темы 16-Янв-2016 22:02

[Цитировать]

Черная месса / Black Mass
Страна: США
Студия: Cross Creek Pictures, Le Grisbi Productions, Infinitum Nihil, Free State Pictures, Head Gear Films
Жанр: Драма, криминал, биография
Год выпуска: 2015
Продолжительность: 02:02:33
Перевод: Профессиональный (дублированный) iTunes
Cубтитры: нет
Оригинальная аудиодорожка: английский
Режиссер: Скотт Купер / Scott Cooper
В ролях: Джонни Депп, Джоэл Эдгертон, Бенедикт Камбербэтч, Кевин Бэйкон, Джесси Племонс, Питер Сарсгаард, Кори Столл, Дакота Джонсон, Рори Кокрейн, Дэвид Харбор, Адам Скотт, Джулианна Николсон, У. Эрл Браун
Описание: Картина расскажет об Уайти Балджере, знаменитом бостонском гангстере, который 16 лет находился в бегах и был арестован в июне 2011 года в Санта-Монике. Балджер, которому уже за 80, обвинялся в рэкете, был замешан в 19 убийствах и в то же время работал информатором на ФБР. Чтобы не попасть за решетку, он исчез в 1995 году и 16 лет успешно скрывался от правосудия.

Сэмпл
Тип релиза: WEB-DL 1080p
Контейнер: MKV
Видео: MPEG-4 AVC, 4468 Кбит/с, 1916x796
Аудио 1: Русский (AC3, 6 ch, 384 Кбит/с) Дублированный [iTunes]
Аудио 2: Английский (AC3, 6 ch, 384 Кбит/с) Оригинал
MediaInfo
Общее
Уникальный идентификатор : 220622330084109811648741115645207652493 (0xA5FA50B05A9A383EA5FADA84D916288D)
Полное имя : F:\HD Раздачи\Chernaya. Massa.2015.WEB-DL 1080p.mkv
Формат : Matroska
Версия формата : Version 2
Размер файла : 4,57 Гбайт
Продолжительность : 2 ч. 2 м.
Общий поток : 5342 Кбит/сек
Название фильма : Черная Месса / Black Mass.2015.WEB-DL 1080p
Дата кодирования : UTC 2016-01-16 03:46:51
Программа кодирования : mkvmerge v5.8.0 ('No Sleep / Pillow') built on Sep 2 2012 15:37:04
Библиотека кодирования : libebml v1.2.3 + libmatroska v1.3.0
Видео
Идентификатор : 1
Формат : AVC
Формат/Информация : Advanced Video Codec
Профиль формата : High@L4.0
Параметр CABAC формата : Да
Параметр ReFrames формата : 5 кадров
Идентификатор кодека : V_MPEG4/ISO/AVC
Продолжительность : 2 ч. 2 м.
Битрейт : 4468 Кбит/сек
Ширина : 1916 пикселей
Высота : 796 пикселей
Соотношение сторон : 2,40:1
Режим частоты кадров : Постоянный
Частота кадров : 23,976 кадра/сек
Цветовое пространство : YUV
Субдискретизация насыщенности : 4:2:0
Битовая глубина : 8 бит
Тип развёртки : Прогрессивная
Бит/(Пиксели*Кадры) : 0.122
Размер потока : 3,82 Гбайт (84%)
Язык : English
Default : Да
Forced : Нет
Основные цвета : BT.709
Характеристики трансфера : BT.709
Коэффициенты матрицы : BT.709
Аудио #1
Идентификатор : 2
Формат : AC-3
Формат/Информация : Audio Coding 3
Расширение режима : CM (complete main)
Параметр Endianness формата : Big
Идентификатор кодека : A_AC3
Продолжительность : 2 ч. 2 м.
Вид битрейта : Постоянный
Битрейт : 384 Кбит/сек
Каналы : 6 каналов
Расположение каналов : Front: L C R, Side: L R, LFE
Частота : 48,0 КГц
Битовая глубина : 16 бит
Метод сжатия : С потерями
Размер потока : 337 Мбайт (7%)
Заголовок : DUB [Tunes]
Язык : Russian
Default : Да
Forced : Нет
Аудио #2
Идентификатор : 3
Формат : AC-3
Формат/Информация : Audio Coding 3
Расширение режима : CM (complete main)
Параметр Endianness формата : Big
Идентификатор кодека : A_AC3
Продолжительность : 2 ч. 2 м.
Вид битрейта : Постоянный
Битрейт : 384 Кбит/сек
Каналы : 6 каналов
Расположение каналов : Front: L C R, Side: L R, LFE
Частота : 48,0 КГц
Битовая глубина : 16 бит
Метод сжатия : С потерями
Размер потока : 337 Мбайт (7%)
Заголовок : Original
Язык : English
Default : Нет
Forced : Нет
Меню
00:00:00.000 : en:1
00:09:44.000 : en:2
00:18:27.000 : en:3
00:28:49.000 : en:4
00:41:49.000 : en:5
00:51:58.000 : en:6
00:59:19.000 : en:7
01:09:17.000 : en:8
01:19:53.000 : en:9
01:28:47.000 : en:10
01:39:44.000 : en:11
01:52:18.000 : en:12
01:55:11.000 : en:13
Интересно
В основу фильма положен бестселлер «Черная месса: правдивая история о дьявольском союзе ФБР и ирландской мафии» (Black Mass: The True Story of an Unholy Alliance Between the FBI and the Irish Mob).
В своем интервью Джонни Депп рассказал, что научился бостонскому акценту для этого фильма благодаря совместному времяпрепровождению с гитаристом группы Aerosmith — Джо Перри.
Роль Балджера должна была достаться Гаю Пирсу, но он по неизвестным причинам покинул проект.
Готовясь к своей роли, Джонни Депп несколько раз пытался встретиться со своим прототипом — гангстером Джеймсом «Уайти» Балджером, отбывающим пожизненный срок, однако тот от встречи отказался.
Джонни Депп рассказал в интервью, что в этот раз он нарушил свое правило – не смотреть свои собственные фильмы. Будучи на премьерном показе в Венеции, он собирался пропустить непосредственно сам просмотр фильма, однако режиссер попросил его остаться, и он остался.
Для того, чтобы бы быть уверенным в том, что персонаж Джонни Деппа на экране соответствует реальному Джеймсу «Уайти» Балджеру, Скотт Купер нанял в качестве консультантов некоторых старых соратников Балджера.
Несмотря на значительное количество сцен отснятых с Сиенной Миллер в роли Кэтрин Грейг, в итоге все они были удалены из финальной версии фильма.
По словам Скотта Купера, изначальная версия фильма была длиной почти 3 часа, однако в итоге ее урезали для поддержания ритма фильма.
Проект был заморожен после того, как из-за несогласованности по вопросу гонорара Джонни Депп его покинул. После того как с Деппом удалось договориться и он вернулся, был недоступен Джоэл Эдгертон, и создателям фильма пришлось еще отсрочить начало съемок в ожидании актера.
Слово «fuck» произносится в фильме 254 раза.
Реальный Кевин Уикс, посмотрев фильм, назвал его «художественным произведением». Он раскритиковал то, как изобразили своих персонажей Джонни Депп и Рори Кокрейн. А также он выразил свои претензии по поводу того, что в фильме его персонаж участвует в преступлениях, причастность к которым он категорически отрицает.
Ревир Бич, находящийся в Ревире, штат Массачусетс, использовался для съемок сцен в Майами-Бич. Для того, чтобы пляж в Ревире выглядел более похожим на пляж в Майами, на нем разместили настоящие пальмовые деревья, а местной пиццерии придали вид кубинского кафе.
Увидев игру Марка Махони в фильме «Кровные узы» (2013), создатели фильма решили взять его на роль Микки Малуни без прослушивания.
Большинство сцен убийств было снято в тех местах, где произошли реальные убийства.
Сцена избиения Джона МакИнтайра (Брэд Картер), показанная в большинстве рекламных роликов, в конечном итоге была вырезана из фильма.
На момент, когда в 2011 году Джеймс «Уайти» Балджер был арестован, он уже 12 лет находился в списке десяти самых разыскиваемых преступников. ФБР предлагала награду в $ 2 миллиона за информацию, которая может вывести на него. Эта сумма была выше, чем у всех остальных в этом списке, кроме Усамы бен Ладена.
Награды
Премия Гильдии актеров, 2016 год
Номинации (1):
Лучшая мужская роль (Джонни Депп)
Скриншоты
[reactorr.org].t72215.torrent
 СЕРЕБРЯНАЯ РАЗДАЧА! СКАЧАННОЕ ЗАСЧИТЫВАЕТСЯ ТОЛЬКО НАПОЛОВИНУ! 
Торрент: Зарегистрирован [ 16-01-2016 22:02 ] · 13FF8FE937933815C2E950DFE574723BB43D12DA

Скачать .torrent

Скачать

12 KB

Статус: проверено
Скачан: 2 раз
Размер: 4,57 GB
terms.php
[Профиль] [ЛС]
Показать сообщения:    
Ответить на тему

Текущее время: 21-Сен 17:39

Часовой пояс: UTC + 3



Вы не можете начинать темы
Вы не можете отвечать на сообщения
Вы не можете редактировать свои сообщения
Вы не можете удалять свои сообщения
Вы не можете голосовать в опросах
Вы не можете прикреплять файлы к сообщениям
Вы можете скачивать файлы