Неуловимые: Последний герой (Артем Аксененко) [2015, Мелодрама, криминал, WEB-DLRip]

Ответить на тему
Статистика раздачи
Размер:  1,37 GB   |    Зарегистрирован:  1 год 7 месяцев   |    Скачан:  3 раза

Полного источника не было: 1 год 1 месяц

 
     
 
 
Автор Сообщение

Crash08 ®

Пол: Мужской

Стаж: 5 лет 10 месяцев

Сообщений: 4789

Создавать темы 16-Янв-2016 23:03

[Цитировать]

Неуловимые: Последний герой Жанр: Mелодрама, криминал
Год выпуска: 2015
Продолжительность: 01:15:59-Режиссёр: Артем Аксененко-В ролях: Александр Петров, Александра Бортич, Иван Шахназаров, Анвар Халилулаев, Илья Маланин, Владимир Яворский, Дмитрий Готсдинер, Алёна Ивченко, Максим Браматкин-Описание: Четверка главных героев во главе с Кирой продолжает свою борьбу с несправедливостью. Новая миссия: выследить яхту с крупной партией наркотиков и сдать всех ментам! И почти получилось. Вот только таинственный незнакомец неожиданно взрывает судно наркоторговцев на глазах у полиции и «неуловимых». Кто он — радикальный борец со злом или решил зачем-то подставить ребят? Пока друзья пытаются разобраться, тот сам находит Киру. Теперь она одна знает его мотивы… а еще понимает, что влюбилась по уши.- l -Качество видео: WEB-DLRip
Формат видео: AVI
Видео: 720x304 (2.35:1), 24.000 fps, XviD build, 2179 Kbps
Аудио: 48.0 kHz, AC3 Dolby Digital, 6 ch, 384 Kbps--
MediaInfo
General
Complete name : Neulovimyie.Poslednii.Gheroi.2015.WEB-DLRip.avi
Format : AVI
Format/Info : Audio Video Interleave
File size : 1.37 GiB
Duration : 1h 15mn
Overall bit rate : 2 572 Kbps
Writing application : VirtualDubMod 1.5.10.3 | www.virtualdub-fr.org || (build 2550/release)
Writing library : VirtualDubMod build 2550/release
Video #0
ID : 0
Format : MPEG-4 Visual
Format profile : Advanced Simple@L5
Format settings, BVOP : 2
Format settings, QPel : No
Format settings, GMC : No warppoints
Format settings, Matrix : Default (MPEG)
Codec ID : XVID
Codec ID/Hint : XviD
Duration : 1h 15mn
Bit rate : 2 179 Kbps
Width : 720 pixels
Height : 304 pixels
Display aspect ratio : 2.35:1
Frame rate : 24.000 fps
Color space : YUV
Chroma subsampling : 4:2:0
Bit depth : 8 bits
Scan type : Progressive
Compression mode : Lossy
Bits/(Pixel*Frame) : 0.415
Stream size : 1.16 GiB (85%)
Writing library : XviD 1.2.1 (UTC 2008-12-04)
Audio #1
ID : 1
Format : AC-3
Format/Info : Audio Coding 3
Mode extension : CM (complete main)
Format settings, Endianness : Big
Codec ID : 2000
Duration : 1h 15mn
Bit rate mode : Constant
Bit rate : 384 Kbps
Channel(s) : 6 channels
Channel positions : Front: L C R, Side: L R, LFE
Sampling rate : 48.0 KHz
Bit depth : 16 bits
Compression mode : Lossy
Stream size : 209 MiB (15%)
Alignment : Split accross interleaves
Interleave, duration : 42 ms (1.00 video frame)
Interleave, preload duration : 500 ms
Скриншот c названием фильма
Скриншоты
[reactorr.org].t72231.torrent
Торрент: Зарегистрирован [ 16-01-2016 23:03 ] · A465275B5CC99B4C39DD38A4680218262A9155A7

Скачать .torrent

Скачать

14 KB

Статус: проверено
Скачан: 3 раз
Размер: 1,37 GB
terms.php
[Профиль] [ЛС]
Показать сообщения:    
Ответить на тему

Текущее время: 23-Авг 07:17

Часовой пояс: UTC + 3



Вы не можете начинать темы
Вы не можете отвечать на сообщения
Вы не можете редактировать свои сообщения
Вы не можете удалять свои сообщения
Вы не можете голосовать в опросах
Вы не можете прикреплять файлы к сообщениям
Вы можете скачивать файлы